DanMachi | Gekijouban Dungeon ni Deai o Motomeru no wa Machigatte Iru Darouka: Orion no Ya | В Подземелье я Пойду, Там Красавицу Найду! Стрела Ориона [2019, Movie] BDRip 1080p raw+rus

 Статистика раздачи 
Размер: 10.62 ГБ   |  Зарегистрирован: 14 фев 2020, 01:40   |   .torrent скачан: 0 раз
Сидеров: 0  [ 0 байт/сек ]     Личеров: 0  [ 0 байт/сек ]  
  
Аватара пользователя
Я на сайте
 
Раздал: 6.64 ТБ
Скачал: 597.93 ГБ
Ратио: 11.363
Сообщения: 257409
Стаж: 2 года 11 месяцев 4 дня


劇場版 ダンジョンに出会いを求めるのは間違っているだろうか -オリオンの矢-
Dungeon ni Deai o Motomeru no wa Machigatte Iru Darouka: Orion no Ya
В Подземелье я Пойду, Там Красавицу Найду! Стрела Ориона

Тип: Movie
Жанр: Приключения, Фэнтези
Продолжительность: 1:22:20

Дата выпуска: 15.02.2019
Автор оригинала: Омори Фудзино
Режиссер: Сакураби Кацуси
Производство: J.C. Staff / Япония

| AniDB | MyAnimelist | Shikimori
Описание:
После произошедших событий жизнь в Орарио снова налаживается. Люди живут как ни в чём не бывало, торговля процветает, а самые смелые искатели приключений снова отправляются на нижние этажи, желая добыть различные богатства и сокровища. В то же время наши герои, Белл и Гестия, решают взяться за тяжёлую миссию и отправиться в далёкое путешествие. Их цель — далёкий от Орарио край континента, руины Эльсос.
Автор: EasyLim © Shikimori
Качество Видео: BDRip,
Видео: AVC/x264, 1920x1080, 23.976 fps, 12.7 Mb/s, 0.256 bpp [8-bit]

Язык Озвучки: Японский и Русский
Озвучка: Двухголосая, Многоголосая закадровая
Аудио №1: AAC 2.0, 48.0 kHz, 192 kb/s (AniDub) | Язык:
Аудио №2: AAC 2.0, 48.0 kHz, 192 kb/s (AniLibria) | Язык:
Аудио №3: AAC 2.0, 48.0 kHz, 192 kb/s (AniStar) | Язык:
Аудио №3: AAC 2.0, 48.0 kHz, 125 kb/s (AnimeVost) | Язык:
Аудио №4: FLAC 2.0, 48.0 kHz, 1 320 kb/s 24-Bit (Original) | Язык:
Аудио №4: DTS 5.1, 48.0 kHz, 3 722 kb/s 24-Bit (Original) | Язык:

Субтитры: Полные (YakuSub)

Скриншоты:
1) Dungeon ni Deai o Motomeru no wa Machigatte Iru Darouka
2) Dungeon ni Deai o Motomeru no wa Machigatte Iru Darouka Gaiden: Sword Oratoria
3) Dungeon ni Deai o Motomeru no wa Machigatte Iru Darouka: Orion no Ya (Эта раздача)
4) Dungeon ni Deai o Motomeru no wa Machigatte Iru Darouka II
5) Dungeon ni Deai wo Motomeru no wa Machigatteiru Darou ka III (Анонс)
Код: Выделить всё
General
Unique ID                   : 187105299334453012874044539540809361040 (0x8CC32B7CDFBE71CC28577B71344EA690)
Complete name               : J:\Аниме\В Подземелье я Пойду, Там Красавицу Найду! (Dungeon ni Deai wo Motomeru no wa Machigatteiru Darou ka) BDRip (2015-2019)\S1(03)01 (Movie). Orion no Ya (Стрела Ориона).mkv
Format                      : Matroska
Format version              : Version 4
File size                   : 10.6 GiB
Duration                    : 1 h 22 min
Overall bit rate mode       : Variable
Overall bit rate            : 18.5 Mb/s
Encoded date                : UTC 2020-02-13 17:42:31
Writing application         : mkvmerge v43.0.0 ('The Quartermaster') 64-bit
Writing library             : libebml v1.3.10 + libmatroska v1.5.2

Video
ID                          : 1
Format                      : AVC
Format/Info                 : Advanced Video Codec
Format profile              : [url=http://nnmclub.to/mailto:High@L4.1]High@L4.1[/url]
Format settings             : CABAC / 4 Ref Frames
Format settings, CABAC      : Yes
Format settings, Reference  : 4 frames
Codec ID                    : V_MPEG4/ISO/AVC
Duration                    : 1 h 22 min
Bit rate                    : 12.7 Mb/s
Width                       : 1 920 pixels
Height                      : 1 080 pixels
Display aspect ratio        : 16:9
Frame rate mode             : Constant
Frame rate                  : 23.976 (24000/1001) FPS
Color space                 : YUV
Chroma subsampling          : 4:2:0
Bit depth                   : 8 bits
Scan type                   : Progressive
Bits/(Pixel*Frame)          : 0.256
Stream size                 : 7.32 GiB (69%)
Writing library             : x264 core 157 r2935 545de2f
Encoding settings           : cabac=1 / ref=4 / deblock=1:-1:-1 / analyse=0x3:0x133 / me=umh / subme=9 / psy=1 / psy_rd=0.85:0.00 / mixed_ref=1 / me_range=32 / chroma_me=1 / trellis=2 / 8x8dct=1 / cqm=0 / deadzone=21,11 / fast_pskip=1 / chroma_qp_offset=-4 / threads=4 / lookahead_threads=1 / sliced_threads=0 / nr=0 / decimate=0 / interlaced=0 / bluray_compat=0 / constrained_intra=0 / bframes=5 / b_pyramid=2 / b_adapt=2 / b_bias=0 / direct=2 / weightb=1 / open_gop=0 / weightp=2 / keyint=230 / keyint_min=23 / scenecut=40 / intra_refresh=0 / rc_lookahead=50 / rc=crf / mbtree=1 / crf=15.0 / qcomp=0.70 / qpmin=10 / qpmax=42 / qpstep=4 / vbv_maxrate=50000 / vbv_bufsize=50000 / crf_max=0.0 / nal_hrd=none / filler=0 / ip_ratio=1.40 / aq=1:0.90
Language                    : Japanese
Default                     : Yes
Forced                      : No

Audio #1
ID                          : 2
Format                      : AAC LC
Format/Info                 : Advanced Audio Codec Low Complexity
Codec ID                    : A_AAC-2
Duration                    : 1 h 22 min
Bit rate                    : 192 kb/s
Channel(s)                  : 2 channels
Channel layout              : L R
Sampling rate               : 48.0 kHz
Frame rate                  : 46.875 FPS (1024 SPF)
Compression mode            : Lossy
Stream size                 : 112 MiB (1%)
Title                       : AniDub (Sergei Vasya & Lelik_time & Mirona & Nika Lenina & Ket & Inspector_Gadjet)
Language                    : Russian
Default                     : Yes
Forced                      : No

Audio #2
ID                          : 3
Format                      : AAC LC
Format/Info                 : Advanced Audio Codec Low Complexity
Codec ID                    : A_AAC-2
Duration                    : 1 h 22 min
Bit rate                    : 192 kb/s
Channel(s)                  : 2 channels
Channel layout              : L R
Sampling rate               : 48.0 kHz
Frame rate                  : 46.875 FPS (1024 SPF)
Compression mode            : Lossy
Stream size                 : 112 MiB (1%)
Title                       : AniLibria (Sharon & Amikiri & Hekomi & HectoR & Dejz & Gomer)
Language                    : Russian
Default                     : No
Forced                      : No

Audio #3
ID                          : 4
Format                      : AAC LC
Format/Info                 : Advanced Audio Codec Low Complexity
Codec ID                    : A_AAC-2
Duration                    : 1 h 22 min
Bit rate                    : 192 kb/s
Channel(s)                  : 2 channels
Channel layout              : L R
Sampling rate               : 48.0 kHz
Frame rate                  : 46.875 FPS (1024 SPF)
Compression mode            : Lossy
Stream size                 : 112 MiB (1%)
Title                       : AniStar (OVERLORDS & Shoker & Kanade Eu & SatiAkura & Ruri)
Language                    : Russian
Default                     : No
Forced                      : No

Audio #4
ID                          : 5
Format                      : AAC LC
Format/Info                 : Advanced Audio Codec Low Complexity
Codec ID                    : A_AAC-2
Duration                    : 1 h 22 min
Bit rate                    : 125 kb/s
Channel(s)                  : 2 channels
Channel layout              : L R
Sampling rate               : 48.0 kHz
Frame rate                  : 46.875 FPS (1024 SPF)
Compression mode            : Lossy
Stream size                 : 73.8 MiB (1%)
Title                       : AnimeVost (Oni & ZaRT)
Language                    : Russian
Default                     : No
Forced                      : No

Audio #5
ID                          : 6
Format                      : FLAC
Format/Info                 : Free Lossless Audio Codec
Codec ID                    : A_FLAC
Duration                    : 1 h 22 min
Bit rate mode               : Variable
Bit rate                    : 1 320 kb/s
Channel(s)                  : 2 channels
Channel layout              : L R
Sampling rate               : 48.0 kHz
Frame rate                  : 11.719 FPS (4096 SPF)
Bit depth                   : 24 bits
Compression mode            : Lossless
Stream size                 : 777 MiB (7%)
Title                       : Original [2.0]
Writing library             : libFLAC 1.3.2 (UTC 2017-01-01)
Language                    : Japanese
Default                     : No
Forced                      : No

Audio #6
ID                          : 7
Format                      : DTS XLL
Format/Info                 : Digital Theater Systems
Commercial name             : DTS-HD Master Audio
Codec ID                    : A_DTS
Duration                    : 1 h 22 min
Bit rate mode               : Variable
Bit rate                    : 3 722 kb/s
Channel(s)                  : 6 channels
Channel layout              : C L R Ls Rs LFE
Sampling rate               : 48.0 kHz
Frame rate                  : 93.750 FPS (512 SPF)
Bit depth                   : 24 bits
Compression mode            : Lossless
Stream size                 : 2.14 GiB (20%)
Title                       : Original [5.1]
Language                    : Japanese
Default                     : No
Forced                      : No

Text
ID                          : 8
Format                      : ASS
Codec ID                    : S_TEXT/ASS
Codec ID/Info               : Advanced Sub Station Alpha
Duration                    : 1 h 20 min
Bit rate                    : 494 b/s
Count of elements           : 1206
Compression mode            : Lossless
Stream size                 : 291 KiB (0%)
Title                       : Full (YakuSub)
Language                    : Russian
Default                     : No
Forced                      : No

Menu
00:00:00.000                : en:Avant
00:06:21.339                : en:Part A
00:12:00.845                : en:Part B
00:18:41.745                : en:Part D
00:28:47.600                : en:Part C
00:45:08.914                : en:Part E
00:54:31.476                : en:Part F
01:02:44.469                : en:Part G
01:13:51.927                : en:Part H
01:17:34.566                : en:ED
Время раздачи: С 8:00 по 18:00 МСК (до появления первых 3-5 скачавших)
Понравился релиз? Ставь
Оценку
и нажми
"Спасибо"
Это серьёзно меня мотивирует делать подобные релизы.
За ретайминг звука и субтитров огромное спасибо
DS2902
Полный список ретаймов
Не забывайте говорить Спасибо. Не уходите с раздачи!   
Торрент: Зарегистрирован [14 фев 2020, 01:40]
Статус:
Проверен
 
.torrent скачан: 0 раз
Хэш: 50b51bd8686d009cb4fac4e817a61cab9bb134d3
Размер: 10.62 ГБ (11 407 262 006 байт)
   Стать Автором раздачи
   
Цитата
  • Похожие торренты
    Ответы
    Просмотры
    Последнее сообщение

Вернуться в Аниме, Японские мультфильмы

Кто сейчас на конференции

Сейчас эту тему просматривают: нет зарегистрированных пользователей и гости: 1