DanMachi | Dungeon ni Deai o Motomeru no wa Machigatte Iru Darouka Gaiden: Sword Oratoria | Sword Oratoria: Is It Wrong to Try to Pick Up Girls in a Dungeon? On the Side | В Подземелье я Пойду, Там Красавицу Найду! Меч Оратории [2017, TV, 12 ep] BDRi

 Статистика раздачи 
Размер: 14.9 ГБ   |  Зарегистрирован: 14 фев 2020, 01:39   |   .torrent скачан: 0 раз
Сидеров: 0  [ 0 байт/сек ]     Личеров: 0  [ 0 байт/сек ]  
  
Аватара пользователя
 
Раздал: 6.64 ТБ
Скачал: 597.93 ГБ
Ратио: 11.363
Сообщения: 257246
Стаж: 2 года 11 месяцев 1 день


ダンジョンに出会いを求めるのは間違っているだろうか外伝 ソード・オラトリア
Dungeon ni Deai o Motomeru no wa Machigatte Iru Darouka Gaiden: Sword Oratoria
Sword Oratoria: Is It Wrong to Try to Pick Up Girls in a Dungeon? On the Side
В Подземелье я Пойду, Там Красавицу Найду! Меч Оратории

Тип: TV
Жанр: Приключения, Фэнтези
Продолжительность: 12 Эпизодов по 23 Мин.
Количество серий: 12 Эпизодов

Дата выпуска: c 15.04.2017 по 01.07.2017
Автор оригинала: Омори Фудзино
Режиссер: Судзуки Ёхэй
Производство: J.C. Staff / Япония

| AniDB | MyAnimelist | Shikimori
Описание:
Спин-офф аниме-сериала «Может, я встречу тебя в подземелье?», главной героиней которого является одна из самых сильнейших мечниц города Орарио — Айз Валенштайн, известная среди всех также как «Принцесса меча».
История начинается, когда Айз вместе со своими союзниками отправляется в огромный лабиринт, известный как «Подземелье». Вместе они отправляются на пятидесятый уровень, на котором обитают различные неведомые создания, наподобие разлагающегося трупа дракона и многого другого. На том уровне она встречает юношу, которому требуется помощь. Тут, в этих лабиринтах города Орарио, и пересекаются истории девушки и юноши.
Автор: UrAgAnChIk © Shikimori
Качество Видео: BDRip,
Видео: AVC/x264, 1920x1080, 23.976 fps, 6 653 kb/s, 0.134 bpp [10-bit]

Язык Озвучки: Японский и Русский
Озвучка: Двухголосая, Многоголосая закадровая
Аудио №1: AC3 2.0, 48.0 kHz, 192 kb/s (AniDub) | Язык:
Аудио №2: AAC 2.0, 48.0 kHz, 192 kb/s (AniLibria) | Язык:
Аудио №3: AAC 2.0, 48.0 kHz, 192 kb/s (Shiza Project) | Язык:
Аудио №4: FLAC 2.0, 48.0 kHz, 1 677 kb/s 24-Bit (Original) | Язык:

Субтитры: Надписи/Полные (Русский)

Скриншоты:
1) Dungeon ni Deai o Motomeru no wa Machigatte Iru Darouka
2) Dungeon ni Deai o Motomeru no wa Machigatte Iru Darouka Gaiden: Sword Oratoria (Эта раздача)
3) Dungeon ni Deai o Motomeru no wa Machigatte Iru Darouka: Orion no Ya
4) Dungeon ni Deai o Motomeru no wa Machigatte Iru Darouka II
5) Dungeon ni Deai wo Motomeru no wa Machigatteiru Darou ka III (Анонс)
01. The Sword Princess and the Elf (Принцесса Меча и Эльф)
02. Fittings and Purchases (Примерка и покупка)
03. Festivals and Courage (Фестиваль и отвага)
04. The Murder and the Jewel (Убийство и драгоценность)
05. The Red-Head and the Lone Ruler (Красноволосая и одинокий правитель)
06. Subjugation and Escape (Подчинение и побег)
07. Requests and Divisions (Просьбы и разделение)
08. The Corruption and the Maiden (Порочность и Дева)
09. Training and Jealousy (Тренировки и зависть)
10. The Boy and the Hero (Юноша и герой)
11. Adventure and the Unknown (Путешествие к неизведанному)
12. Sword Oratoria (Меч Оратории)
Код: Выделить всё
General
Unique ID                   : 209828910397002456715570810568561576528 (0x9DDB94032836D97C0D813CCFB072CA50)
Complete name               : J:\Аниме\В Подземелье я Пойду, Там Красавицу Найду! (Dungeon ni Deai wo Motomeru no wa Machigatteiru Darou ka) BDRip (2015-2019)\01 .The Sword Princess and the Elf (Принцесса Меча и Эльф).mkv
Format                      : Matroska
Format version              : Version 4
File size                   : 1.48 GiB
Duration                    : 23 min 40 s
Overall bit rate mode       : Variable
Overall bit rate            : 8 925 kb/s
Encoded date                : UTC 2020-02-13 17:52:11
Writing application         : mkvmerge v43.0.0 ('The Quartermaster') 64-bit
Writing library             : libebml v1.3.10 + libmatroska v1.5.2
Attachments                 : OpenSans-SemiboldItalic.ttf / Rosario-Bold.otf / 10119.ttf / 10323.ttf / calibrib.ttf / calibriz.ttf / cambriab.ttf / FreeSansBold.ttf / OpenSans-Semibold.ttf

Video
ID                          : 1
Format                      : AVC
Format/Info                 : Advanced Video Codec
Format profile              : High 10@L5
Format settings             : CABAC / 16 Ref Frames
Format settings, CABAC      : Yes
Format settings, Reference  : 16 frames
Codec ID                    : V_MPEG4/ISO/AVC
Duration                    : 23 min 40 s
Bit rate                    : 6 653 kb/s
Width                       : 1 920 pixels
Height                      : 1 080 pixels
Display aspect ratio        : 16:9
Frame rate mode             : Constant
Frame rate                  : 23.976 (24000/1001) FPS
Color space                 : YUV
Chroma subsampling          : 4:2:0
Bit depth                   : 10 bits
Scan type                   : Progressive
Bits/(Pixel*Frame)          : 0.134
Stream size                 : 1.10 GiB (75%)
Writing library             : x264 core 148 r2597M e86f3a1 (DJATOM's build)
Encoding settings           : cabac=1 / ref=16 / deblock=1:1:-1 / analyse=0x3:0x113 / me=umh / subme=10 / psy=1 / fade_compensate=0.00 / psy_rd=1.00:0.00 / mixed_ref=1 / me_range=24 / chroma_me=1 / trellis=2 / 8x8dct=1 / cqm=0 / deadzone=21,11 / fast_pskip=1 / chroma_qp_offset=-2 / threads=12 / lookahead_threads=3 / sliced_threads=0 / nr=0 / decimate=1 / interlaced=0 / bluray_compat=0 / constrained_intra=0 / bframes=16 / b_pyramid=2 / b_adapt=2 / b_bias=0 / direct=1 / weightb=1 / open_gop=0 / weightp=2 / keyint=250 / keyint_min=23 / scenecut=40 / intra_refresh=0 / rc=crf / mbtree=0 / crf=14.8000 / qcomp=0.72 / qpmin=0 / qpmax=81 / qpstep=4 / ip_ratio=1.40 / pb_ratio=1.30 / aq=1:1.00
Language                    : Japanese
Default                     : Yes
Forced                      : No
Color range                 : Limited
Color primaries             : BT.709
Transfer characteristics    : BT.709
Matrix coefficients         : BT.709

Audio #1
ID                          : 2
Format                      : AC-3
Format/Info                 : Audio Coding 3
Commercial name             : Dolby Digital
Codec ID                    : A_AC3
Duration                    : 23 min 40 s
Bit rate mode               : Constant
Bit rate                    : 192 kb/s
Channel(s)                  : 2 channels
Channel layout              : L R
Sampling rate               : 48.0 kHz
Frame rate                  : 31.250 FPS (1536 SPF)
Compression mode            : Lossy
Stream size                 : 32.5 MiB (2%)
Title                       : AniDub (Ancord & Jade & Oriko)
Language                    : Russian
Service kind                : Complete Main
Default                     : Yes
Forced                      : No

Audio #2
ID                          : 3
Format                      : AAC LC
Format/Info                 : Advanced Audio Codec Low Complexity
Codec ID                    : A_AAC-2
Duration                    : 23 min 40 s
Bit rate                    : 192 kb/s
Channel(s)                  : 2 channels
Channel layout              : L R
Sampling rate               : 48.0 kHz
Frame rate                  : 46.875 FPS (1024 SPF)
Compression mode            : Lossy
Stream size                 : 32.1 MiB (2%)
Title                       : AniLibria (Sharon & LeeAnnushka)
Language                    : Russian
Default                     : No
Forced                      : No

Audio #3
ID                          : 4
Format                      : AAC LC
Format/Info                 : Advanced Audio Codec Low Complexity
Codec ID                    : A_AAC-2
Duration                    : 23 min 40 s
Bit rate                    : 192 kb/s
Channel(s)                  : 2 channels
Channel layout              : L R
Sampling rate               : 48.0 kHz
Frame rate                  : 46.875 FPS (1024 SPF)
Compression mode            : Lossy
Stream size                 : 32.1 MiB (2%)
Title                       : Shiza Project (nDrOiDze & Dancel & Abe & Лизавета)
Language                    : Russian
Default                     : No
Forced                      : No

Audio #4
ID                          : 5
Format                      : FLAC
Format/Info                 : Free Lossless Audio Codec
Codec ID                    : A_FLAC
Duration                    : 23 min 39 s
Bit rate mode               : Variable
Bit rate                    : 1 677 kb/s
Channel(s)                  : 2 channels
Channel layout              : L R
Sampling rate               : 48.0 kHz
Frame rate                  : 41.667 FPS (1152 SPF)
Bit depth                   : 24 bits
Compression mode            : Lossless
Stream size                 : 284 MiB (19%)
Title                       : Original
Writing library             : libFLAC 1.3.0 (UTC 2013-05-26)
Language                    : Japanese
Default                     : No
Forced                      : No

Text #1
ID                          : 6
Format                      : ASS
Codec ID                    : S_TEXT/ASS
Codec ID/Info               : Advanced Sub Station Alpha
Duration                    : 23 min 39 s
Bit rate                    : 31 b/s
Count of elements           : 69
Compression mode            : Lossless
Stream size                 : 5.38 KiB (0%)
Title                       : Forced
Language                    : Russian
Default                     : Yes
Forced                      : No

Text #2
ID                          : 7
Format                      : ASS
Codec ID                    : S_TEXT/ASS
Codec ID/Info               : Advanced Sub Station Alpha
Duration                    : 23 min 39 s
Bit rate                    : 134 b/s
Count of elements           : 333
Compression mode            : Lossless
Stream size                 : 23.2 KiB (0%)
Title                       : Full
Language                    : Russian
Default                     : No
Forced                      : No
Время раздачи: С 8:00 по 18:00 МСК (до появления первых 3-5 скачавших)
Понравился релиз? Ставь
Оценку
и нажми
"Спасибо"
Это серьёзно меня мотивирует делать подобные релизы.
За ретайминг звука и субтитров огромное спасибо
DS2902
Полный список ретаймов
Не забывайте говорить Спасибо. Не уходите с раздачи!   
Торрент: Зарегистрирован [14 фев 2020, 01:39]
Статус:
Проверен
 
.torrent скачан: 0 раз
Хэш: 104fe195ecb510573808c6437ee812bc17d001ea
Размер: 14.9 ГБ (15 995 051 397 байт)
   Стать Автором раздачи
   
Цитата
  • Похожие торренты
    Ответы
    Просмотры
    Последнее сообщение

Вернуться в Аниме, Японские мультфильмы

Кто сейчас на конференции

Сейчас эту тему просматривают: нет зарегистрированных пользователей и гости: 1