DanMachi | Dungeon ni Deai o Motomeru no wa Machigatte Iru Darouka | Is It Wrong to Try to Pick Up Girls in a Dungeon? | В Подземелье я Пойду, Там Красавицу Найду! [2015, TV-1, 13 ep + OVA] BDRip 1080p 10-bit raw+rus

 Статистика раздачи 
Размер: 21.57 ГБ   |  Зарегистрирован: 14 фев 2020, 01:39   |   .torrent скачан: 0 раз
Сидеров: 0  [ 0 байт/сек ]     Личеров: 0  [ 0 байт/сек ]  
  
Аватара пользователя
Я на сайте
 
Раздал: 6.64 ТБ
Скачал: 597.93 ГБ
Ратио: 11.363
Сообщения: 257409
Стаж: 2 года 11 месяцев 4 дня


ダンジョンに出会いを求めるのは間違っているだろうか
Dungeon ni Deai o Motomeru no wa Machigatte Iru Darouka
Is It Wrong to Try to Pick Up Girls in a Dungeon?
В Подземелье я Пойду, Там Красавицу Найду! [ТВ-1]

Тип: TV
Жанр: Приключения, Фэнтези, Романтика
Продолжительность: 13 Эпизодов по 23 Мин.; 1 Эпизод 24 Мин.
Количество серий: 13 Эпизодов + ОВА

Дата выпуска: c 04.04.2015 по 27.06.2015
Автор оригинала: Омори Фудзино
Режиссер: Ямакава Ёсики
Производство: J.C. Staff / Япония

| AniDB | MyAnimelist | Shikimori
Описание:
Город Орарио неспроста называют городом лабиринтов. Жилые районы, парки и скверы, мощённые камнем улицы — всё это скрывает под собой, хранит где-то глубоко внизу огромных размеров лабиринт, прославленное на весь мир и чертовски опасное «Подземелье». Со всех сторон света это место притягивает в город безмерное количество авантюристов — людей умелых, азартных и честолюбивых. Людей, жаждущих приключений и славы, а ещё, быть может, мимолётных романтических отношений с прекрасной спутницей.
Белл Кранел, новоиспечённый авантюрист, как и многие, воодушевлённый грандиозными планами, отправляется в этот загадочный город снов и желаний, где встречает богиню Гестию, нуждающуюся в последователях. На этом судьбоносные встречи не заканчиваются. И вот будущего героя, улепётывающего от разъярённого Минотавра, спасает другая девушка — известная авантюристка, талантливая мечница и просто красавица Айз Валенштайн. Восхищённый её боевыми навыками, Белл решает во что бы то ни стало достичь такого же уровня и стать первоклассным фехтовальщиком, не уступающим по силе и мастерству новообретённому кумиру.
Автор: Joseph © Shikimori
Качество Видео: BDRip,
Видео: AVC/x264, 1920x1080, 23.976 fps, 7 159 kb/s, 0.144 bpp [10-bit]

Язык Озвучки: Японский и Русский
Озвучка: Двухголосая, Многоголосая закадровая
TV
Аудио №1: AC3 2.0, 48.0 kHz, 192 kb/s (AniDub) | Язык:
Аудио №2: AC3 2.0, 48.0 kHz, 192 kb/s (AniFilm) | Язык:
Аудио №3: AAC 2.0, 48.0 kHz, 192 kb/s (Shiza Project) | Язык:
Аудио №4: AC3 2.0, 48.0 kHz, 192 kb/s (AniLibria) | Язык:
Аудио №5: AC3 2.0, 48.0 kHz, 192 kb/s (Onibaku) | Язык:
Аудио №6: AC3 2.0, 48.0 kHz, 192 kb/s (OpenDub) | Язык:
Аудио №7: FLAC 2.0, 48.0 kHz, 1 434 kb/s 24-Bit (Original) | Язык:

OVA
Аудио №1: AC3 2.0, 48.0 kHz, 192 kb/s (AniDub) | Язык:
Аудио №2: AC3 2.0, 48.0 kHz, 192 kb/s (AniLibria) | Язык:
Аудио №3: FLAC 2.0, 48.0 kHz, 730 kb/s 16-bit (Shiza Project) | Язык:
Аудио №4: FLAC 2.0, 48.0 kHz, 1 511 kb/s 24-Bit (Original) | Язык:

Субтитры: Надписи/Полные (Русский)

Скриншоты:


1) Dungeon ni Deai o Motomeru no wa Machigatte Iru Darouka (Эта раздача)
2) Dungeon ni Deai o Motomeru no wa Machigatte Iru Darouka Gaiden: Sword Oratoria
3) Dungeon ni Deai o Motomeru no wa Machigatte Iru Darouka: Orion no Ya
4) Dungeon ni Deai o Motomeru no wa Machigatte Iru Darouka II
5) Dungeon ni Deai wo Motomeru no wa Machigatteiru Darou ka III (Анонс)
TV
01. Bell Cranel Adventurer (Бэл Кранелл, искатель приключений)
02. Monsterphilia Monster Festival (Монстромания, или празднество чудовищ)
03. Hestia Knife The Blade of a God (Нож Гестии, или Божественный клинок)
04. Supporter The Weak (Помощница, или слабачка)
05. Grimoire Magic Book (Гримуар, или книга заклинаний)
06. Liliruca Arde Reason (Лилирука Арде, или предлог)
07. Aiz Wallenstein Sword Princess (Айц Валленштайн, или Принцесса клинка)
08. Argonaut Wanting to Be a Hero (Аргонавт, или Хочу стать героем!)
09. Welf Crozzo Blacksmith (Вельф Кроццо, или кузнец)
10. Pass Parade Procession of Monsters (Добыча поневоле, или как натравить чудовищ)
11. Under Resort Labyrinth Utopia (Грот Спокойствия, или Рай в лабиринте)
12. Show Evil Intentions (Представление, или злой умысел)
13. Familia Myth The Story of a Familia (Сказанье о пастве)

OVA
14 . (Горячие Источники)
Код: Выделить всё
General
Unique ID                   : 149939066808850122187494169673905076929 (0x70CD36BF887DFC0D3D38EFD9F02DFAC1)
Complete name               : J:\Аниме\В Подземелье я Пойду, Там Красавицу Найду! (Dungeon ni Deai wo Motomeru no wa Machigatteiru Darou ka) BDRip (2015-2019)\DanMachi 1\S1(01)01. Bell Cranel Adventurer (Бэл Кранелл, искатель приключений).mkv
Format                      : Matroska
Format version              : Version 4
File size                   : 1.61 GiB
Duration                    : 23 min 42 s
Overall bit rate mode       : Variable
Overall bit rate            : 9 749 kb/s
Encoded date                : UTC 2020-02-13 17:21:57
Writing application         : mkvmerge v43.0.0 ('The Quartermaster') 64-bit
Writing library             : libebml v1.3.10 + libmatroska v1.5.2

Video
ID                          : 1
Format                      : AVC
Format/Info                 : Advanced Video Codec
Format profile              : High 10@L5
Format settings             : CABAC / 4 Ref Frames
Format settings, CABAC      : Yes
Format settings, Reference  : 4 frames
Codec ID                    : V_MPEG4/ISO/AVC
Duration                    : 23 min 42 s
Bit rate                    : 7 159 kb/s
Width                       : 1 920 pixels
Height                      : 1 080 pixels
Display aspect ratio        : 16:9
Frame rate mode             : Constant
Frame rate                  : 23.976 (24000/1001) FPS
Original frame rate         : 23.976 (23976/1000) FPS
Color space                 : YUV
Chroma subsampling          : 4:2:0
Bit depth                   : 10 bits
Scan type                   : Progressive
Bits/(Pixel*Frame)          : 0.144
Stream size                 : 1.19 GiB (73%)
Writing library             : x264 core 148 (DJATOM's build)
Encoding settings           : cabac=1 / ref=4 / deblock=1:1:-1 / analyse=0x3:0x113 / me=umh / subme=9 / psy=1 / fade_compensate=0.00 / psy_rd=1.00:0.00 / mixed_ref=1 / me_range=32 / chroma_me=1 / trellis=2 / 8x8dct=1 / cqm=0 / deadzone=21,11 / fast_pskip=1 / chroma_qp_offset=-2 / threads=12 / lookahead_threads=2 / sliced_threads=0 / nr=0 / decimate=1 / interlaced=0 / bluray_compat=0 / constrained_intra=0 / bframes=9 / b_pyramid=2 / b_adapt=2 / b_bias=0 / direct=1 / weightb=1 / open_gop=0 / weightp=2 / keyint=250 / keyint_min=23 / scenecut=40 / intra_refresh=0 / rc=crf / mbtree=0 / crf=15.5000 / qcomp=0.72 / qpmin=0 / qpmax=81 / qpstep=4 / ip_ratio=1.40 / pb_ratio=1.30 / aq=1:0.85
Language                    : Japanese
Default                     : Yes
Forced                      : No
Color range                 : Limited
Color primaries             : BT.709
Transfer characteristics    : BT.709
Matrix coefficients         : BT.709

Audio #1
ID                          : 2
Format                      : AC-3
Format/Info                 : Audio Coding 3
Commercial name             : Dolby Digital
Codec ID                    : A_AC3
Duration                    : 23 min 42 s
Bit rate mode               : Constant
Bit rate                    : 192 kb/s
Channel(s)                  : 2 channels
Channel layout              : L R
Sampling rate               : 48.0 kHz
Frame rate                  : 31.250 FPS (1536 SPF)
Compression mode            : Lossy
Stream size                 : 32.6 MiB (2%)
Title                       : AniDub (Ancord & Jade & Гамлетка Цезаревна)
Language                    : Russian
Service kind                : Complete Main
Default                     : Yes
Forced                      : No

Audio #2
ID                          : 3
Format                      : AC-3
Format/Info                 : Audio Coding 3
Commercial name             : Dolby Digital
Codec ID                    : A_AC3
Duration                    : 23 min 42 s
Bit rate mode               : Constant
Bit rate                    : 192 kb/s
Channel(s)                  : 2 channels
Channel layout              : L R
Sampling rate               : 48.0 kHz
Frame rate                  : 31.250 FPS (1536 SPF)
Compression mode            : Lossy
Stream size                 : 32.5 MiB (2%)
Title                       : AniFilm (ShadMG, Octav & Акварелька)
Language                    : Russian
Service kind                : Complete Main
Default                     : No
Forced                      : No

Audio #3
ID                          : 4
Format                      : AAC LC
Format/Info                 : Advanced Audio Codec Low Complexity
Codec ID                    : A_AAC-2
Duration                    : 23 min 40 s
Bit rate                    : 192 kb/s
Channel(s)                  : 2 channels
Channel layout              : L R
Sampling rate               : 48.0 kHz
Frame rate                  : 46.875 FPS (1024 SPF)
Compression mode            : Lossy
Stream size                 : 32.5 MiB (2%)
Title                       : Shiza Project (Hope & Aska)
Language                    : Russian
Default                     : No
Forced                      : No

Audio #4
ID                          : 5
Format                      : AC-3
Format/Info                 : Audio Coding 3
Commercial name             : Dolby Digital
Codec ID                    : A_AC3
Duration                    : 23 min 42 s
Bit rate mode               : Constant
Bit rate                    : 192 kb/s
Channel(s)                  : 2 channels
Channel layout              : L R
Sampling rate               : 48.0 kHz
Frame rate                  : 31.250 FPS (1536 SPF)
Compression mode            : Lossy
Stream size                 : 32.5 MiB (2%)
Title                       : Anilibria (Metacarmex & Say)
Language                    : Russian
Service kind                : Complete Main
Default                     : No
Forced                      : No

Audio #5
ID                          : 6
Format                      : AC-3
Format/Info                 : Audio Coding 3
Commercial name             : Dolby Digital
Codec ID                    : A_AC3
Duration                    : 23 min 42 s
Bit rate mode               : Constant
Bit rate                    : 192 kb/s
Channel(s)                  : 2 channels
Channel layout              : L R
Sampling rate               : 48.0 kHz
Frame rate                  : 31.250 FPS (1536 SPF)
Compression mode            : Lossy
Stream size                 : 32.5 MiB (2%)
Title                       : Onibaku (Absurd & Eladiel)
Language                    : Russian
Service kind                : Complete Main
Default                     : No
Forced                      : No

Audio #6
ID                          : 7
Format                      : AC-3
Format/Info                 : Audio Coding 3
Commercial name             : Dolby Digital
Codec ID                    : A_AC3
Duration                    : 23 min 42 s
Bit rate mode               : Constant
Bit rate                    : 192 kb/s
Channel(s)                  : 2 channels
Channel layout              : L R
Sampling rate               : 48.0 kHz
Frame rate                  : 31.250 FPS (1536 SPF)
Compression mode            : Lossy
Stream size                 : 32.5 MiB (2%)
Title                       : OpenDub (Mistake & Kira Ksyll)
Language                    : Russian
Service kind                : Complete Main
Default                     : No
Forced                      : No

Audio #7
ID                          : 8
Format                      : FLAC
Format/Info                 : Free Lossless Audio Codec
Codec ID                    : A_FLAC
Duration                    : 23 min 42 s
Bit rate mode               : Variable
Bit rate                    : 1 434 kb/s
Channel(s)                  : 2 channels
Channel layout              : L R
Sampling rate               : 48.0 kHz
Frame rate                  : 11.719 FPS (4096 SPF)
Bit depth                   : 24 bits
Compression mode            : Lossless
Stream size                 : 243 MiB (15%)
Title                       : Original
Writing library             : libFLAC 1.2.1 (UTC 2007-09-17)
Language                    : Japanese
Default                     : No
Forced                      : No

Text #1
ID                          : 9
Format                      : ASS
Codec ID                    : S_TEXT/ASS
Codec ID/Info               : Advanced Sub Station Alpha
Duration                    : 21 min 46 s
Bit rate                    : 12 b/s
Count of elements           : 17
Compression mode            : Lossless
Stream size                 : 1.95 KiB (0%)
Title                       : Forced (Shift, Timecraft, Ambiente)
Language                    : Russian
Default                     : Yes
Forced                      : No

Text #2
ID                          : 10
Format                      : ASS
Codec ID                    : S_TEXT/ASS
Codec ID/Info               : Advanced Sub Station Alpha
Duration                    : 23 min 38 s
Bit rate                    : 162 b/s
Count of elements           : 389
Compression mode            : Lossless
Stream size                 : 28.1 KiB (0%)
Title                       : Full (Evafan Satin & Koushin & Матадор)
Language                    : Russian
Default                     : No
Forced                      : No

Menu
00:00:00.000                : :Avant
00:01:57.034                : :Part A
00:10:49.107                : :Part B
00:21:26.118                : :ED
00:22:56.041                : :Part C
00:23:36.081                : :Next
Код: Выделить всё
General
Unique ID                   : 260293623308868271372787312945237712876 (0xC3D2BA74E834B2F33AA8653A78A5DFEC)
Complete name               : J:\Аниме\В Подземелье я Пойду, Там Красавицу Найду! (Dungeon ni Deai wo Motomeru no wa Machigatteiru Darou ka) BDRip (2015-2019)\DanMachi 1\S1(01)14 (OVA-1). (Горячие Источники).mkv
Format                      : Matroska
Format version              : Version 4
File size                   : 1.35 GiB
Duration                    : 24 min 43 s
Overall bit rate mode       : Variable
Overall bit rate            : 7 840 kb/s
Movie name                  : [NoobSubs] DanMachi OVA (720p Blu-ray 10bit AAC)
Track name/Position         : 1
Track name/Total            : 1
Encoded date                : UTC 2020-02-13 17:41:15
Writing application         : mkvmerge v43.0.0 ('The Quartermaster') 64-bit
Writing library             : libebml v1.3.10 + libmatroska v1.5.2
Attachments                 : KozMinPro-Medium.otf / palab.ttf / stylo.ttf / v_CCYadaYadaYadaInt-Regular_v1.ttf / 9364.ttf
ARTIST                      : Subs: None

Video
ID                          : 1
Format                      : AVC
Format/Info                 : Advanced Video Codec
Format profile              : High 10@L5
Format settings             : CABAC / 4 Ref Frames
Format settings, CABAC      : Yes
Format settings, Reference  : 4 frames
Codec ID                    : V_MPEG4/ISO/AVC
Duration                    : 24 min 36 s
Bit rate                    : 5 220 kb/s
Width                       : 1 920 pixels
Height                      : 1 080 pixels
Display aspect ratio        : 16:9
Frame rate mode             : Constant
Frame rate                  : 23.976 (24000/1001) FPS
Color space                 : YUV
Chroma subsampling          : 4:2:0
Bit depth                   : 10 bits
Scan type                   : Progressive
Bits/(Pixel*Frame)          : 0.105
Stream size                 : 919 MiB (66%)
Writing library             : x264 core 148 (DJATOM's build)
Encoding settings           : cabac=1 / ref=4 / deblock=1:1:-1 / analyse=0x3:0x113 / me=umh / subme=9 / psy=1 / fade_compensate=0.00 / psy_rd=1.00:0.00 / mixed_ref=1 / me_range=32 / chroma_me=1 / trellis=2 / 8x8dct=1 / cqm=0 / deadzone=21,11 / fast_pskip=1 / chroma_qp_offset=-2 / threads=12 / lookahead_threads=2 / sliced_threads=0 / nr=0 / decimate=1 / interlaced=0 / bluray_compat=0 / constrained_intra=0 / bframes=9 / b_pyramid=2 / b_adapt=2 / b_bias=0 / direct=1 / weightb=1 / open_gop=0 / weightp=2 / keyint=250 / keyint_min=23 / scenecut=40 / intra_refresh=0 / rc=crf / mbtree=0 / crf=15.7000 / qcomp=0.72 / qpmin=0 / qpmax=81 / qpstep=4 / ip_ratio=1.40 / pb_ratio=1.30 / aq=1:0.85
Language                    : Japanese
Default                     : Yes
Forced                      : No
Color range                 : Limited
Color primaries             : BT.709
Transfer characteristics    : BT.709
Matrix coefficients         : BT.709

Audio #1
ID                          : 2
Format                      : AC-3
Format/Info                 : Audio Coding 3
Commercial name             : Dolby Digital
Codec ID                    : A_AC3
Duration                    : 24 min 36 s
Bit rate mode               : Constant
Bit rate                    : 192 kb/s
Channel(s)                  : 2 channels
Channel layout              : L R
Sampling rate               : 48.0 kHz
Frame rate                  : 31.250 FPS (1536 SPF)
Compression mode            : Lossy
Stream size                 : 33.8 MiB (2%)
Title                       : AniDub (Ancord & Jade & Гамлетка Цезаревна)
Language                    : Russian
Service kind                : Complete Main
Default                     : Yes
Forced                      : No

Audio #2
ID                          : 3
Format                      : FLAC
Format/Info                 : Free Lossless Audio Codec
Codec ID                    : A_FLAC
Duration                    : 24 min 37 s
Bit rate mode               : Variable
Bit rate                    : 730 kb/s
Channel(s)                  : 2 channels
Channel layout              : L R
Sampling rate               : 48.0 kHz
Frame rate                  : 11.719 FPS (4096 SPF)
Bit depth                   : 16 bits
Compression mode            : Lossless
Stream size                 : 128 MiB (9%)
Title                       : Shiza Project (Dancel & nDrOiDze & NoName & Abe & Акварелька)
Writing library             : libFLAC 1.3.2 (UTC 2017-01-01)
Language                    : Russian
Default                     : No
Forced                      : No

Audio #3
ID                          : 4
Format                      : AAC LC
Format/Info                 : Advanced Audio Codec Low Complexity
Codec ID                    : A_AAC-2
Duration                    : 24 min 43 s
Bit rate                    : 192 kb/s
Channel(s)                  : 2 channels
Channel layout              : L R
Sampling rate               : 48.0 kHz
Frame rate                  : 46.875 FPS (1024 SPF)
Compression mode            : Lossy
Stream size                 : 34.0 MiB (2%)
Title                       : AniLibria
Language                    : Russian
Default                     : No
Forced                      : No

Audio #4
ID                          : 5
Format                      : FLAC
Format/Info                 : Free Lossless Audio Codec
Codec ID                    : A_FLAC
Duration                    : 24 min 36 s
Bit rate mode               : Variable
Bit rate                    : 1 511 kb/s
Channel(s)                  : 2 channels
Channel layout              : L R
Sampling rate               : 48.0 kHz
Frame rate                  : 11.719 FPS (4096 SPF)
Bit depth                   : 24 bits
Compression mode            : Lossless
Stream size                 : 266 MiB (19%)
Title                       : Original
Writing library             : libFLAC 1.3.1 (UTC 2014-11-25)
Language                    : Japanese
Default                     : No
Forced                      : No

Text #1
ID                          : 6
Format                      : ASS
Codec ID                    : S_TEXT/ASS
Codec ID/Info               : Advanced Sub Station Alpha
Duration                    : 20 min 28 s
Bit rate                    : 6 b/s
Count of elements           : 4
Compression mode            : Lossless
Stream size                 : 1.04 KiB (0%)
Title                       : Forced (AOS)
Language                    : Russian
Default                     : Yes
Forced                      : No

Text #2
ID                          : 7
Format                      : ASS
Codec ID                    : S_TEXT/ASS
Codec ID/Info               : Advanced Sub Station Alpha
Duration                    : 23 min 9 s
Bit rate                    : 161 b/s
Count of elements           : 374
Compression mode            : Lossless
Stream size                 : 27.3 KiB (0%)
Title                       : Full (AOS)
Language                    : Russian
Default                     : No
Forced                      : No

Menu #1
00:00:00.000                : :Chapter 1
00:01:04.981                : :Chapter 2
00:02:35.029                : :Chapter 3
00:10:14.030                : :Chapter 4
00:23:03.965                : :Chapter 5
00:24:42.147                : :Chapter 6

Menu #2
00:00:00.000                : :Avant
00:01:04.981                : :OP
00:02:35.029                : :Part A
00:10:14.030                : :Part B
00:23:03.965                : :ED
Время раздачи: С 8:00 по 18:00 МСК (до появления первых 3-5 скачавших)
Понравился релиз? Ставь
Оценку
и нажми
"Спасибо"
Это серьёзно меня мотивирует делать подобные релизы.
За ретайминг звука и субтитров огромное спасибо
DS2902
Полный список ретаймов
Не забывайте говорить Спасибо. Не уходите с раздачи!   
Торрент: Зарегистрирован [14 фев 2020, 01:39]
Статус:
Проверен
 
.torrent скачан: 0 раз
Хэш: 7a9f66477a56da29d1eb7fd6607f8dac4f19e5a6
Размер: 21.57 ГБ (23 161 167 746 байт)
   Стать Автором раздачи
   
Цитата
  • Похожие торренты
    Ответы
    Просмотры
    Последнее сообщение

Вернуться в Аниме, Японские мультфильмы

Кто сейчас на конференции

Сейчас эту тему просматривают: нет зарегистрированных пользователей и гости: 1