Netoge no Yome wa Onnanoko ja Nai to Omotta? | And You Thought There Is Never a Girl Online? | А ты Думал, что Твоя Жена в Онлайн Игре на Самом Деле не Девушка? [2016, TV, 12 ep] BDRip 1080p raw+rus

 Статистика раздачи 
Размер: 20.79 ГБ   |  Зарегистрирован: 14 фев 2020, 01:12   |   .torrent скачан: 0 раз
Сидеров: 0  [ 0 байт/сек ]     Личеров: 0  [ 0 байт/сек ]  
  
Аватара пользователя
 
Раздал: 6.64 ТБ
Скачал: 597.93 ГБ
Ратио: 11.363
Сообщения: 257246
Стаж: 2 года 11 месяцев 1 день


ネトゲの嫁は女の子じゃないと思った?
Netoge no Yome wa Onnanoko ja Nai to Omotta?
And You Thought There Is Never a Girl Online?
А ты Думал, что Твоя Жена в Онлайн Игре на Самом Деле не Девушка?

Тип: TV
Жанр: Комедия, Романтика
Продолжительность: 12 Эпизодов по 24 Мин.
Количество серий: 12 Эпизодов

Дата выпуска: c 07.04.2016 по 23.06.2016
Автор оригинала: Кинэко Сибай
Режиссер: Янаги Синсукэ
Производство: Project No.9 / Япония

| AniDB | MyAnimelist | Shikimori
Описание:
Хидэки Нишимура — обычный школьник, долгое время играющий в MMORPG-игру под названием «Легендарный век». Однажды в игре он влюбился в девушку, но в ответ на признание узнал... что в реальной жизни это — взрослый мужчина! В шоке от такого, он твёрдо решил больше никогда не позволять себе романтических чувств в игровом мире.
Однако через некоторое время, встретив в той же игре другую девушку по имени Ако, Хидэки получил от неё просьбу заключить игровой брак. Уступив её настойчивости, он согласился, но продолжал держать дистанцию, помня, что на самом деле милашка Ако могла оказаться вовсе не девушкой.
В один прекрасный момент глава небольшой гильдии, в которой состоят Хидэки и Ако, заявляет, что состоится первая оффлайн*-встреча. Кем же окажутся члены гильдии на самом деле? И как будут развиваться их взаимоотношения в реальной жизни?
Автор: endopascals, Multiflyer © Shikimori
Качество Видео: BDRip,
Видео: AVC/x264, 1920x1080, 23.976 fps, 7 656 kb/s, 0.154 bpp [8-bit]

Язык Озвучки: Японский и Русский
Озвучка: Двухголосая, Многоголосая закадровая
Аудио №1: AAC 2.0, 48.0 kHz, 192 kb/s (AniMedia) | Язык:
Аудио №2: AAC 2.0, 48.0 kHz, 192 kb/s (AniFilm) | Язык:
Аудио №3: AC3 2.0, 48.0 kHz, 192 kb/s (AniDub) | Язык:
Аудио №4: AAC 2.0, 48.0 kHz, 192 kb/s (AniLibria) | Язык:
Аудио №5: AC3 2.0, 48.0 kHz, 192 kb/s (Shiza Project) | Язык:
Аудио №6: FLAC 2.0, 48.0 kHz, 1 433 kb/s 24-Bit (Original) | Язык:

Субтитры: Надписи / Полные (Gerale, Ryuji, K-c) / (anipaladin & Kittor)

Скриншоты:
01. And You Thought There Is Never a Girl Online (А ты думал, что девушки не бывают в Cети)
02. I Thought We Couldn`t Play Net Games at School (Я думал, что мы не можем играть в онлайн игры в школе)
03. I Thought Net Games and Reality Were Different (Разве игра и реальность - не разные вещи)
04. I Thought Her Secret Wasn`t Going to Get Out (Я думала, ты сбережёшь её секрет)
05. I Thought Reincarnating Would Give Me My Big Chance (А разве ты не получаешь второй шанс после перерождения)
06. I Thought If I Declared My Love, I Was Sure to Succeed (Я думал, что если я признаюсь тебе, у меня все получится)
07. I Thought If I Went to the Beach, I Would Become a Normie (Я думал, что стану нормальным, если поеду на пляж!)
08. I Thought I Was Giving Up Being a Net Game Husband (Я думал, что уже смирился с тем что я муж в сетевой игре)
09. I Thought If We Stayed Over, We Would Get Along Better (Я думал, наши отношения станут лучше, если переночуем вместе)
10. I Thought We Would Do Our Best at the Culture Festival (Я думал, мы выложимся на полную во время культурного фестиваля)
11. I Thought We Could Win by Delegating to Others (Я думал, мы выиграем, если положимся на остальных)
12. My Net Game Wife Is a Girl Online (Моя жена в онлайн-игре на самом деле девушка)
Код: Выделить всё
General
Unique ID                   : 15222601395037255952888923325436981746 (0xB73C431DC657DB1F918E71BBF7AF1F2)
Complete name               : J:\Аниме\А ты Думал, что Твоя Жена в Онлайн Игре на Самом Деле не Девушка (Netoge no Yome wa Onnanoko ja Nai to Omotta) BDRip (2016)\02. I Thought We Couldn`t Play Net Games at School (Я думал, что мы не можем играть в онлайн игры в школе).mkv
Format                      : Matroska
Format version              : Version 4
File size                   : 1.70 GiB
Duration                    : 24 min 12 s
Overall bit rate mode       : Variable
Overall bit rate            : 10.1 Mb/s
Encoded date                : UTC 2020-02-13 15:31:25
Writing application         : mkvmerge v43.0.0 ('The Quartermaster') 64-bit
Writing library             : libebml v1.3.10 + libmatroska v1.5.2
Attachments                 : Modeschrift.ttf / 8882.ttf / LEHN073.TTF / BOOKOSBI.TTF / BOOKOSI.TTF / Domkrat Bold.ttf / 42918.ttf / BOOKOS.TTF / BOOKOSB.TTF

Video
ID                          : 1
Format                      : AVC
Format/Info                 : Advanced Video Codec
Format profile              : High@L4
Format settings             : CABAC / 4 Ref Frames
Format settings, CABAC      : Yes
Format settings, Reference  : 4 frames
Codec ID                    : V_MPEG4/ISO/AVC
Duration                    : 24 min 12 s
Bit rate                    : 7 656 kb/s
Width                       : 1 920 pixels
Height                      : 1 080 pixels
Display aspect ratio        : 16:9
Frame rate mode             : Constant
Frame rate                  : 23.976 (24000/1001) FPS
Color space                 : YUV
Chroma subsampling          : 4:2:0
Bit depth                   : 8 bits
Scan type                   : Progressive
Bits/(Pixel*Frame)          : 0.154
Stream size                 : 1.29 GiB (76%)
Writing library             : x264 core 148
Encoding settings           : opencl=1 / cabac=1 / ref=4 / deblock=1:-2:-2 / analyse=0x3:0x113 / me=umh / subme=9 / psy=1 / psy_rd=0.70:0.00 / mixed_ref=0 / me_range=32 / chroma_me=1 / trellis=2 / 8x8dct=1 / cqm=0 / deadzone=21,11 / fast_pskip=1 / chroma_qp_offset=-2 / threads=8 / lookahead_threads=1 / sliced_threads=0 / nr=0 / decimate=1 / interlaced=0 / bluray_compat=0 / constrained_intra=0 / bframes=9 / b_pyramid=2 / b_adapt=2 / b_bias=0 / direct=3 / weightb=1 / open_gop=0 / weightp=2 / keyint=250 / keyint_min=23 / scenecut=40 / intra_refresh=0 / rc_lookahead=40 / rc=crf / mbtree=1 / crf=16.0 / qcomp=0.70 / qpmin=10 / qpmax=20 / qpstep=4 / ip_ratio=1.40 / aq=1:1.00
Language                    : Japanese
Default                     : Yes
Forced                      : No

Audio #1
ID                          : 2
Format                      : AAC LC
Format/Info                 : Advanced Audio Codec Low Complexity
Codec ID                    : A_AAC-2
Duration                    : 24 min 12 s
Bit rate                    : 192 kb/s
Channel(s)                  : 2 channels
Channel layout              : L R
Sampling rate               : 48.0 kHz
Frame rate                  : 46.875 FPS (1024 SPF)
Compression mode            : Lossy
Stream size                 : 32.8 MiB (2%)
Title                       : AniMedia (FREYA & Kobayashi & NAZEL & Revi_Kim)
Language                    : Russian
Default                     : Yes
Forced                      : No

Audio #2
ID                          : 3
Format                      : AAC LC
Format/Info                 : Advanced Audio Codec Low Complexity
Codec ID                    : A_AAC-2
Duration                    : 24 min 12 s
Bit rate                    : 192 kb/s
Channel(s)                  : 2 channels
Channel layout              : L R
Sampling rate               : 48.0 kHz
Frame rate                  : 46.875 FPS (1024 SPF)
Compression mode            : Lossy
Stream size                 : 32.8 MiB (2%)
Title                       : AniFilm (DemonOFmooN & MezIdA & Баяна)
Language                    : Russian
Default                     : No
Forced                      : No

Audio #3
ID                          : 4
Format                      : AC-3
Format/Info                 : Audio Coding 3
Commercial name             : Dolby Digital
Codec ID                    : A_AC3
Duration                    : 24 min 9 s
Bit rate mode               : Constant
Bit rate                    : 192 kb/s
Channel(s)                  : 2 channels
Channel layout              : L R
Sampling rate               : 48.0 kHz
Frame rate                  : 31.250 FPS (1536 SPF)
Compression mode            : Lossy
Stream size                 : 33.2 MiB (2%)
Title                       : AniDub (Fuurou & Nika Lenina)
Language                    : Russian
Service kind                : Complete Main
Default                     : No
Forced                      : No

Audio #4
ID                          : 5
Format                      : AAC LC
Format/Info                 : Advanced Audio Codec Low Complexity
Codec ID                    : A_AAC-2
Duration                    : 24 min 12 s
Bit rate                    : 192 kb/s
Channel(s)                  : 2 channels
Channel layout              : L R
Sampling rate               : 48.0 kHz
Frame rate                  : 46.875 FPS (1024 SPF)
Compression mode            : Lossy
Stream size                 : 32.8 MiB (2%)
Title                       : AniLibria (Silv & Lupin & Itashi)
Language                    : Russian
Default                     : No
Forced                      : No

Audio #5
ID                          : 6
Format                      : AC-3
Format/Info                 : Audio Coding 3
Commercial name             : Dolby Digital
Codec ID                    : A_AC3
Duration                    : 24 min 12 s
Bit rate mode               : Constant
Bit rate                    : 192 kb/s
Channel(s)                  : 2 channels
Channel layout              : L R
Sampling rate               : 48.0 kHz
Frame rate                  : 31.250 FPS (1536 SPF)
Compression mode            : Lossy
Stream size                 : 33.2 MiB (2%)
Title                       : Shiza Project (Snowly & Лизавета)
Language                    : Russian
Service kind                : Complete Main
Default                     : No
Forced                      : No

Audio #6
ID                          : 7
Format                      : FLAC
Format/Info                 : Free Lossless Audio Codec
Codec ID                    : A_FLAC
Duration                    : 24 min 12 s
Bit rate mode               : Variable
Bit rate                    : 1 433 kb/s
Channel(s)                  : 2 channels
Channel layout              : L R
Sampling rate               : 48.0 kHz
Frame rate                  : 11.719 FPS (4096 SPF)
Bit depth                   : 24 bits
Compression mode            : Lossless
Stream size                 : 248 MiB (14%)
Title                       : Original
Writing library             : libFLAC 1.3.2 (UTC 2017-01-01)
Language                    : Japanese
Default                     : No
Forced                      : No

Text #1
ID                          : 8
Format                      : ASS
Codec ID                    : S_TEXT/ASS
Codec ID/Info               : Advanced Sub Station Alpha
Duration                    : 22 min 39 s
Bit rate                    : 37 b/s
Count of elements           : 53
Compression mode            : Lossless
Stream size                 : 6.21 KiB (0%)
Title                       : Forced (Gerale, Ryuji, K-c)
Language                    : Russian
Default                     : Yes
Forced                      : No

Text #2
ID                          : 9
Format                      : ASS
Codec ID                    : S_TEXT/ASS
Codec ID/Info               : Advanced Sub Station Alpha
Duration                    : 24 min 8 s
Bit rate                    : 215 b/s
Count of elements           : 515
Compression mode            : Lossless
Stream size                 : 38.1 KiB (0%)
Title                       : Full (anipaladin & Kittor)
Language                    : Russian
Default                     : No
Forced                      : No
Время раздачи: С 8:00 по 18:00 МСК (до появления первых 3-5 скачавших)
Понравился релиз? Ставь
Оценку
и нажми
"Спасибо"
Это серьёзно меня мотивирует делать подобные релизы.
За ретайминг звука и субтитров огромное спасибо
DS2902
Полный список ретаймов
Не забывайте говорить Спасибо. Не уходите с раздачи!   
Торрент: Зарегистрирован [14 фев 2020, 01:12]
Статус:
Проверен
 
.torrent скачан: 0 раз
Хэш: 7d6e1a73a2b3f1f6bc8db80123674bc87da4d863
Размер: 20.79 ГБ (22 322 642 255 байт)
   Стать Автором раздачи
   
Цитата
  • Похожие торренты
    Ответы
    Просмотры
    Последнее сообщение

Вернуться в Аниме, Японские мультфильмы

Кто сейчас на конференции

Сейчас эту тему просматривают: нет зарегистрированных пользователей и гости: 1