Thelonious Monk - The Complete Albums Collection 1954-57 (2015) 5CD, Enlightenment [FLAC|Lossless|tracks + .cue] <Bop, Hard Bop, Piano Jazz>

 Статистика раздачи 
Размер: 1.81 ГБ   |  Зарегистрирован: 14 фев 2020, 07:39   |   .torrent скачан: 0 раз
Сидеров: 4  [ 0 байт/сек ]     Личеров: 1  [ 0 байт/сек ]  
  
Аватара пользователя
Я на сайте
 
Раздал: 6.64 ТБ
Скачал: 597.93 ГБ
Ратио: 11.363
Сообщения: 257409
Стаж: 2 года 11 месяцев 4 дня

Thelonious Monk - The Complete Albums Collection 1954-57 (2015) 5CD, Enlightenment

Жанр: Bop, Hard Bop, Piano Jazz
Издание: Enlightenment - EN5CD9048
Продолжительность: 06:20:21

Кодек: FLAC (tracks+.cue)
Битрейт: Lossless
Источник (релизер): subix5
Страна-производитель диска: England
Наличие сканов в содержимом раздачи: да
Треклист:
CD1:
01. 'Round About Midnight [3:12]
02. Off Minor [3:02]
03. Ruby, My Dear [3:08]
04. I Mean You [2:45]
05. April in Paris [3:21]
06. In Walked Bud [2:57]
07. Thelonious [3:01]
08. Epistrophy [3:06]
Трeклист:

01. 'Round About Midnight [3:12]
02. Off Minor [3:02]
03. Ruby, My Dear [3:08]
04. I Mean You [2:45]
05. April in Paris [3:21]
06. In Walked Bud [2:57]
07. Thelonious [3:01]
08. Epistrophy [3:06]
09. Misterioso [3:21]
10. Well You Needn't [2:58]
11. Introspection [3:13]
12. Humph [2:53]
13. Carolina Moon [3:29]
14. Hornin' In [3:15]
15. Skippy [3:02]
16. Let's Cool One [3:50]
17. Suburban Eyes [3:01]
18. Evonce [3:05]
19. Straight, No Chaser [3:00]
20. Four in One [3:32]
21. Nice Work [3:04]
22. Monk's Mood [3:08]
23. Who Knows [2:42]
24. Ask Me Now [3:18]

Продолжительность:
01:15:23
Код: Выделить всё
Exact Audio Copy V1.3 from 2. September 2016

EAC extraction logfile from 2. December 2019, 1:40

Thelonious Monk / The Complete Albums Collection 1954-57

Used drive  : SONY    DVD RW AD-7280S   Adapter: 1  ID: 1

Read mode               : Secure
Utilize accurate stream : Yes
Defeat audio cache      : Yes
Make use of C2 pointers : No

Read offset correction                      : 48
Overread into Lead-In and Lead-Out          : No
Fill up missing offset samples with silence : Yes
Delete leading and trailing silent blocks   : No
Null samples used in CRC calculations       : Yes
Used interface                              : Native Win32 interface for Win NT & 2000
Gap handling                                : Appended to previous track

Used output format              : User Defined Encoder
Selected bitrate                : 1024 kBit/s
Quality                         : High
Add ID3 tag                     : No
Command line compressor         : C:\Program Files (x86)\Exact Audio Copy\Flac\flac.exe
Additional command line options : -8 -e -p -V -T "ARTIST=%artist%" -T "TITLE=%title%" -T "ALBUM=%albumtitle%" -T "DATE=%year%" -T "TRACKNUMBER=%tracknr%" -T "GENRE=%genre%" -T "PERFORMER=%albuminterpret%" -T "COMPOSER=%composer%" %haslyrics%--tag-from-file=LYRICS="%lyricsfile%"%haslyrics% -T "ALBUMARTIST=%albumartist%" -T "DISCNUMBER=%cdnumber%" -T "TOTALDISCS=%totalcds%" -T "TOTALTRACKS=%numtracks%" -T "COMMENT=%comment%" %source% -o %dest%

TOC of the extracted CD

     Track |   Start  |  Length  | Start sector | End sector
    ---------------------------------------------------------
        1  |  0:00.00 |  3:11.58 |         0    |    14382
        2  |  3:11.58 |  3:01.47 |     14383    |    28004
        3  |  6:13.30 |  3:08.15 |     28005    |    42119
        4  |  9:21.45 |  2:45.09 |     42120    |    54503
        5  | 12:06.54 |  3:20.40 |     54504    |    69543
        6  | 15:27.19 |  2:56.52 |     69544    |    82795
        7  | 18:23.71 |  3:01.10 |     82796    |    96380
        8  | 21:25.06 |  3:05.74 |     96381    |   110329
        9  | 24:31.05 |  3:21.19 |    110330    |   125423
       10  | 27:52.24 |  2:57.62 |    125424    |   138760
       11  | 30:50.11 |  3:12.68 |    138761    |   153228
       12  | 34:03.04 |  2:53.23 |    153229    |   166226
       13  | 36:56.27 |  3:29.37 |    166227    |   181938
       14  | 40:25.64 |  3:15.35 |    181939    |   196598
       15  | 43:41.24 |  3:01.57 |    196599    |   210230
       16  | 46:43.06 |  3:49.38 |    210231    |   227443
       17  | 50:32.44 |  3:01.12 |    227444    |   241030
       18  | 53:33.56 |  3:04.70 |    241031    |   254900
       19  | 56:38.51 |  3:00.23 |    254901    |   268423
       20  | 59:38.74 |  3:31.56 |    268424    |   284304
       21  | 63:10.55 |  3:03.47 |    284305    |   298076
       22  | 66:14.27 |  3:08.03 |    298077    |   312179
       23  | 69:22.30 |  2:42.37 |    312180    |   324366
       24  | 72:04.67 |  3:18.08 |    324367    |   339224

Track  1

     Filename G:\__New\_EAC rips\Thelonious Monk - The Complete Albums Collection 1954-57  [CD EN5CD9048]  (2015) 5cd flac\CD1\01 - 'Round About Midnight.wav

     Pre-gap length  0:00:02.00

     Peak level 81.4 %
     Extraction speed 2.5 X
     Track quality 100.0 %
     Test CRC 30799784
     Copy CRC 30799784
     Accurately ripped (confidence 6)  [1A508C8A]  (AR v2)
     Copy OK

Track  2

     Filename G:\__New\_EAC rips\Thelonious Monk - The Complete Albums Collection 1954-57  [CD EN5CD9048]  (2015) 5cd flac\CD1\02 - Off Minor.wav

     Peak level 85.1 %
     Extraction speed 2.6 X
     Track quality 100.0 %
     Test CRC 682A29F7
     Copy CRC 682A29F7
     Accurately ripped (confidence 6)  [786A0472]  (AR v2)
     Copy OK

Track  3

     Filename G:\__New\_EAC rips\Thelonious Monk - The Complete Albums Collection 1954-57  [CD EN5CD9048]  (2015) 5cd flac\CD1\03 - Ruby, My Dear.wav

     Peak level 76.2 %
     Extraction speed 2.5 X
     Track quality 99.9 %
     Test CRC EEFE5EB3
     Copy CRC EEFE5EB3
     Accurately ripped (confidence 6)  [E843E18D]  (AR v2)
     Copy OK

Track  4

     Filename G:\__New\_EAC rips\Thelonious Monk - The Complete Albums Collection 1954-57  [CD EN5CD9048]  (2015) 5cd flac\CD1\04 - I Mean You.wav

     Peak level 61.4 %
     Extraction speed 2.9 X
     Track quality 100.0 %
     Test CRC 4186B4E0
     Copy CRC 4186B4E0
     Accurately ripped (confidence 6)  [83D0FCBD]  (AR v2)
     Copy OK

Track  5

     Filename G:\__New\_EAC rips\Thelonious Monk - The Complete Albums Collection 1954-57  [CD EN5CD9048]  (2015) 5cd flac\CD1\05 - April In Paris.wav

     Peak level 89.5 %
     Extraction speed 2.7 X
     Track quality 99.9 %
     Test CRC 3C6EBA25
     Copy CRC 3C6EBA25
     Accurately ripped (confidence 6)  [1314B013]  (AR v2)
     Copy OK

Track  6

     Filename G:\__New\_EAC rips\Thelonious Monk - The Complete Albums Collection 1954-57  [CD EN5CD9048]  (2015) 5cd flac\CD1\06 - In Walked Bud.wav

     Peak level 80.2 %
     Extraction speed 3.3 X
     Track quality 100.0 %
     Test CRC E95FB2DC
     Copy CRC E95FB2DC
     Accurately ripped (confidence 6)  [A5E9FBE2]  (AR v2)
     Copy OK

Track  7

     Filename G:\__New\_EAC rips\Thelonious Monk - The Complete Albums Collection 1954-57  [CD EN5CD9048]  (2015) 5cd flac\CD1\07 - Thelonious.wav

     Peak level 88.3 %
     Extraction speed 3.4 X
     Track quality 100.0 %
     Test CRC EBC6E5CD
     Copy CRC EBC6E5CD
     Accurately ripped (confidence 6)  [35FB5A57]  (AR v2)
     Copy OK

Track  8

     Filename G:\__New\_EAC rips\Thelonious Monk - The Complete Albums Collection 1954-57  [CD EN5CD9048]  (2015) 5cd flac\CD1\08 - Epistrophy.wav

     Peak level 55.5 %
     Extraction speed 3.5 X
     Track quality 100.0 %
     Test CRC C2F36EED
     Copy CRC C2F36EED
     Accurately ripped (confidence 6)  [3A6C049D]  (AR v2)
     Copy OK

Track  9

     Filename G:\__New\_EAC rips\Thelonious Monk - The Complete Albums Collection 1954-57  [CD EN5CD9048]  (2015) 5cd flac\CD1\09 - Misterioso.wav

     Peak level 58.0 %
     Extraction speed 3.7 X
     Track quality 100.0 %
     Test CRC 067D1971
     Copy CRC 067D1971
     Accurately ripped (confidence 6)  [4FC787B0]  (AR v2)
     Copy OK

Track 10

     Filename G:\__New\_EAC rips\Thelonious Monk - The Complete Albums Collection 1954-57  [CD EN5CD9048]  (2015) 5cd flac\CD1\10 - Well You Needn't.wav

     Peak level 75.2 %
     Extraction speed 3.8 X
     Track quality 100.0 %
     Test CRC 98668864
     Copy CRC 98668864
     Accurately ripped (confidence 6)  [6EE51C30]  (AR v2)
     Copy OK

Track 11

     Filename G:\__New\_EAC rips\Thelonious Monk - The Complete Albums Collection 1954-57  [CD EN5CD9048]  (2015) 5cd flac\CD1\11 - Introspection.wav

     Peak level 82.4 %
     Extraction speed 3.5 X
     Track quality 99.9 %
     Test CRC 9BE1374C
     Copy CRC 9BE1374C
     Accurately ripped (confidence 6)  [88935BC0]  (AR v2)
     Copy OK

Track 12

     Filename G:\__New\_EAC rips\Thelonious Monk - The Complete Albums Collection 1954-57  [CD EN5CD9048]  (2015) 5cd flac\CD1\12 - Humph.wav

     Peak level 90.9 %
     Extraction speed 3.3 X
     Track quality 99.9 %
     Test CRC 9D89F66A
     Copy CRC 9D89F66A
     Accurately ripped (confidence 6)  [3153993E]  (AR v2)
     Copy OK

Track 13

     Filename G:\__New\_EAC rips\Thelonious Monk - The Complete Albums Collection 1954-57  [CD EN5CD9048]  (2015) 5cd flac\CD1\13 - Carolina Moon.wav

     Peak level 97.9 %
     Extraction speed 3.7 X
     Track quality 99.9 %
     Test CRC 79E64C0E
     Copy CRC 79E64C0E
     Accurately ripped (confidence 6)  [C7124823]  (AR v2)
     Copy OK

Track 14

     Filename G:\__New\_EAC rips\Thelonious Monk - The Complete Albums Collection 1954-57  [CD EN5CD9048]  (2015) 5cd flac\CD1\14 - Hornin' In.wav

     Peak level 97.9 %
     Extraction speed 4.3 X
     Track quality 100.0 %
     Test CRC 1109C4C4
     Copy CRC 1109C4C4
     Accurately ripped (confidence 6)  [D3562E8B]  (AR v2)
     Copy OK

Track 15

     Filename G:\__New\_EAC rips\Thelonious Monk - The Complete Albums Collection 1954-57  [CD EN5CD9048]  (2015) 5cd flac\CD1\15 - Skippy.wav

     Peak level 97.9 %
     Extraction speed 4.4 X
     Track quality 100.0 %
     Test CRC 2505879B
     Copy CRC 2505879B
     Accurately ripped (confidence 6)  [EB8999CF]  (AR v2)
     Copy OK

Track 16

     Filename G:\__New\_EAC rips\Thelonious Monk - The Complete Albums Collection 1954-57  [CD EN5CD9048]  (2015) 5cd flac\CD1\16 - Let'S Cool One.wav

     Peak level 97.9 %
     Extraction speed 4.7 X
     Track quality 100.0 %
     Test CRC F6C53EAE
     Copy CRC F6C53EAE
     Accurately ripped (confidence 6)  [931B3FE2]  (AR v2)
     Copy OK

Track 17

     Filename G:\__New\_EAC rips\Thelonious Monk - The Complete Albums Collection 1954-57  [CD EN5CD9048]  (2015) 5cd flac\CD1\17 - Suburban Eyes.wav

     Peak level 88.9 %
     Extraction speed 4.6 X
     Track quality 100.0 %
     Test CRC 4223837C
     Copy CRC 4223837C
     Accurately ripped (confidence 6)  [9D0D9AD5]  (AR v2)
     Copy OK

Track 18

     Filename G:\__New\_EAC rips\Thelonious Monk - The Complete Albums Collection 1954-57  [CD EN5CD9048]  (2015) 5cd flac\CD1\18 - Evonce.wav

     Peak level 88.8 %
     Extraction speed 4.1 X
     Track quality 99.9 %
     Test CRC DBA24884
     Copy CRC DBA24884
     Accurately ripped (confidence 6)  [969A62AF]  (AR v2)
     Copy OK

Track 19

     Filename G:\__New\_EAC rips\Thelonious Monk - The Complete Albums Collection 1954-57  [CD EN5CD9048]  (2015) 5cd flac\CD1\19 - Straight, No Chaser.wav

     Peak level 97.9 %
     Extraction speed 4.7 X
     Track quality 100.0 %
     Test CRC 3FD1792C
     Copy CRC 3FD1792C
     Accurately ripped (confidence 6)  [5717FFA8]  (AR v2)
     Copy OK

Track 20

     Filename G:\__New\_EAC rips\Thelonious Monk - The Complete Albums Collection 1954-57  [CD EN5CD9048]  (2015) 5cd flac\CD1\20 - Four In One.wav

     Peak level 97.9 %
     Extraction speed 5.0 X
     Track quality 100.0 %
     Test CRC 868CC63E
     Copy CRC 868CC63E
     Accurately ripped (confidence 6)  [FBCA3416]  (AR v2)
     Copy OK

Track 21

     Filename G:\__New\_EAC rips\Thelonious Monk - The Complete Albums Collection 1954-57  [CD EN5CD9048]  (2015) 5cd flac\CD1\21 - Nice Work.wav

     Peak level 79.0 %
     Extraction speed 5.0 X
     Track quality 100.0 %
     Test CRC C115308B
     Copy CRC C115308B
     Accurately ripped (confidence 6)  [F1D4B6A1]  (AR v2)
     Copy OK

Track 22

     Filename G:\__New\_EAC rips\Thelonious Monk - The Complete Albums Collection 1954-57  [CD EN5CD9048]  (2015) 5cd flac\CD1\22 - Monk's Mood.wav

     Peak level 79.2 %
     Extraction speed 5.1 X
     Track quality 100.0 %
     Test CRC 396D2868
     Copy CRC 396D2868
     Accurately ripped (confidence 6)  [C170E8B9]  (AR v2)
     Copy OK

Track 23

     Filename G:\__New\_EAC rips\Thelonious Monk - The Complete Albums Collection 1954-57  [CD EN5CD9048]  (2015) 5cd flac\CD1\23 - Who Knows.wav

     Peak level 91.8 %
     Extraction speed 5.0 X
     Track quality 100.0 %
     Test CRC 7B9A4F48
     Copy CRC 7B9A4F48
     Accurately ripped (confidence 6)  [E7FDC7EA]  (AR v2)
     Copy OK

Track 24

     Filename G:\__New\_EAC rips\Thelonious Monk - The Complete Albums Collection 1954-57  [CD EN5CD9048]  (2015) 5cd flac\CD1\24 - Ask Me Now.wav

     Peak level 96.4 %
     Extraction speed 5.3 X
     Track quality 100.0 %
     Test CRC C4FA86FE
     Copy CRC C4FA86FE
     Accurately ripped (confidence 6)  [9E15C3D9]  (AR v2)
     Copy OK

All tracks accurately ripped

No errors occurred

End of status report

---- CUETools DB Plugin V2.1.6

[CTDB TOCID: T46WB36h4L2xco.tvKX4rIfv1Ws-] found
Submit result: T46WB36h4L2xco.tvKX4rIfv1Ws- has been confirmed
Track | CTDB Status
  1   | (35/50) Accurately ripped
  2   | (35/50) Accurately ripped
  3   | (35/50) Accurately ripped
  4   | (35/50) Accurately ripped
  5   | (35/50) Accurately ripped
  6   | (35/50) Accurately ripped
  7   | (35/50) Accurately ripped
  8   | (35/50) Accurately ripped
  9   | (35/50) Accurately ripped
 10   | (35/50) Accurately ripped
 11   | (35/50) Accurately ripped
 12   | (35/50) Accurately ripped
 13   | (35/50) Accurately ripped
 14   | (35/50) Accurately ripped
 15   | (35/50) Accurately ripped
 16   | (35/50) Accurately ripped
 17   | (35/50) Accurately ripped
 18   | (35/50) Accurately ripped
 19   | (35/50) Accurately ripped
 20   | (35/50) Accurately ripped
 21   | (35/50) Accurately ripped
 22   | (35/50) Accurately ripped
 23   | (35/50) Accurately ripped
 24   | (35/50) Accurately ripped

==== Log checksum E3E5665E02C5F709243D7D52CB0E708A3A016CB8829650F8DBCFBF9D286FD085 ====

Трeклист:

01. Blue Monk [7:39]
02. Just a Gigolo [3:01]
03. Bemsha Swing [3:10]
04. Reflections [2:48]
05. Little Rootie Tootie [3:06]
06. Sweet and Lovely [3:34]
07. Bye-Ya [2:47]
08. Monk's Dream [3:07]
09. Trinkle Tinkle [2:50]
10. These Foolish Things [2:46]
11. We See [5:18]
12. Smoke Gets in Your Eyes [4:33]
13. Locomotive [6:24]
14. Hackensack [5:13]
15. Let's Call This [5:08]
16. Think of One [5:47]
17. Think of One [5:42]

Продолжительность:
01:12:52
Код: Выделить всё
Exact Audio Copy V1.3 from 2. September 2016

EAC extraction logfile from 2. December 2019, 8:28

Thelonious Monk / Thelonious Monk:  The Complete Albums Collection, 1954-57

Used drive  : SONY    DVD RW AD-7280S   Adapter: 1  ID: 1

Read mode               : Secure
Utilize accurate stream : Yes
Defeat audio cache      : Yes
Make use of C2 pointers : No

Read offset correction                      : 48
Overread into Lead-In and Lead-Out          : No
Fill up missing offset samples with silence : Yes
Delete leading and trailing silent blocks   : No
Null samples used in CRC calculations       : Yes
Used interface                              : Native Win32 interface for Win NT & 2000
Gap handling                                : Appended to previous track

Used output format              : User Defined Encoder
Selected bitrate                : 1024 kBit/s
Quality                         : High
Add ID3 tag                     : No
Command line compressor         : C:\Program Files (x86)\Exact Audio Copy\Flac\flac.exe
Additional command line options : -8 -e -p -V -T "ARTIST=%artist%" -T "TITLE=%title%" -T "ALBUM=%albumtitle%" -T "DATE=%year%" -T "TRACKNUMBER=%tracknr%" -T "GENRE=%genre%" -T "PERFORMER=%albuminterpret%" -T "COMPOSER=%composer%" %haslyrics%--tag-from-file=LYRICS="%lyricsfile%"%haslyrics% -T "ALBUMARTIST=%albumartist%" -T "DISCNUMBER=%cdnumber%" -T "TOTALDISCS=%totalcds%" -T "TOTALTRACKS=%numtracks%" -T "COMMENT=%comment%" %source% -o %dest%

TOC of the extracted CD

     Track |   Start  |  Length  | Start sector | End sector
    ---------------------------------------------------------
        1  |  0:00.00 |  7:39.10 |         0    |    34434
        2  |  7:39.10 |  3:00.66 |     34435    |    48000
        3  | 10:40.01 |  3:10.33 |     48001    |    62283
        4  | 13:50.34 |  2:48.09 |     62284    |    74892
        5  | 16:38.43 |  3:06.02 |     74893    |    88844
        6  | 19:44.45 |  3:33.62 |     88845    |   104881
        7  | 23:18.32 |  2:46.74 |    104882    |   117405
        8  | 26:05.31 |  3:07.26 |    117406    |   131456
        9  | 29:12.57 |  2:49.70 |    131457    |   144201
       10  | 32:02.52 |  2:46.07 |    144202    |   156658
       11  | 34:48.59 |  5:17.50 |    156659    |   180483
       12  | 40:06.34 |  4:32.47 |    180484    |   200930
       13  | 44:39.06 |  6:23.70 |    200931    |   229725
       14  | 51:03.01 |  5:12.40 |    229726    |   253165
       15  | 56:15.41 |  5:07.47 |    253166    |   276237
       16  | 61:23.13 |  5:46.40 |    276238    |   302227
       17  | 67:09.53 |  5:42.22 |    302228    |   327899

Track  1

     Filename G:\__New\_EAC rips\Thelonious Monk - The Complete Albums Collection 1954-57  [CD EN5CD9048]  (2015) 5cd flac\CD2\01 - Blue Monk.wav

     Pre-gap length  0:00:02.00

     Peak level 97.9 %
     Extraction speed 2.5 X
     Track quality 99.9 %
     Test CRC 8F722479
     Copy CRC 8F722479
     Accurately ripped (confidence 15)  [B27FD02C]  (AR v2)
     Copy OK

Track  2

     Filename G:\__New\_EAC rips\Thelonious Monk - The Complete Albums Collection 1954-57  [CD EN5CD9048]  (2015) 5cd flac\CD2\02 - Just a Gigolo.wav

     Peak level 97.9 %
     Extraction speed 2.7 X
     Track quality 100.0 %
     Test CRC 58221967
     Copy CRC 58221967
     Accurately ripped (confidence 15)  [F4B18C9A]  (AR v2)
     Copy OK

Track  3

     Filename G:\__New\_EAC rips\Thelonious Monk - The Complete Albums Collection 1954-57  [CD EN5CD9048]  (2015) 5cd flac\CD2\03 - Bemsha Swing.wav

     Peak level 97.9 %
     Extraction speed 3.0 X
     Track quality 100.0 %
     Test CRC 8D973D76
     Copy CRC 8D973D76
     Accurately ripped (confidence 15)  [F0369EF1]  (AR v2)
     Copy OK

Track  4

     Filename G:\__New\_EAC rips\Thelonious Monk - The Complete Albums Collection 1954-57  [CD EN5CD9048]  (2015) 5cd flac\CD2\04 - Reflections.wav

     Peak level 90.3 %
     Extraction speed 3.0 X
     Track quality 100.0 %
     Test CRC 5B4C57A7
     Copy CRC 5B4C57A7
     Accurately ripped (confidence 15)  [6A95A937]  (AR v2)
     Copy OK

Track  5

     Filename G:\__New\_EAC rips\Thelonious Monk - The Complete Albums Collection 1954-57  [CD EN5CD9048]  (2015) 5cd flac\CD2\05 - Little Rootie Tootie.wav

     Peak level 97.9 %
     Extraction speed 3.3 X
     Track quality 100.0 %
     Test CRC B34150A6
     Copy CRC B34150A6
     Accurately ripped (confidence 15)  [905D35B9]  (AR v2)
     Copy OK

Track  6

     Filename G:\__New\_EAC rips\Thelonious Monk - The Complete Albums Collection 1954-57  [CD EN5CD9048]  (2015) 5cd flac\CD2\06 - Sweet and Lovely.wav

     Peak level 97.9 %
     Extraction speed 3.4 X
     Track quality 100.0 %
     Test CRC 6B1F73B0
     Copy CRC 6B1F73B0
     Accurately ripped (confidence 15)  [ABE01919]  (AR v2)
     Copy OK

Track  7

     Filename G:\__New\_EAC rips\Thelonious Monk - The Complete Albums Collection 1954-57  [CD EN5CD9048]  (2015) 5cd flac\CD2\07 - Bye-Ya.wav

     Peak level 97.9 %
     Extraction speed 2.9 X
     Track quality 99.9 %
     Test CRC 12A5DCE0
     Copy CRC 12A5DCE0
     Accurately ripped (confidence 15)  [F0DBF0C3]  (AR v2)
     Copy OK

Track  8

     Filename G:\__New\_EAC rips\Thelonious Monk - The Complete Albums Collection 1954-57  [CD EN5CD9048]  (2015) 5cd flac\CD2\08 - Monk's Dream.wav

     Peak level 97.9 %
     Extraction speed 3.7 X
     Track quality 100.0 %
     Test CRC 702BB5C0
     Copy CRC 702BB5C0
     Accurately ripped (confidence 15)  [1BF6B6BE]  (AR v2)
     Copy OK

Track  9

     Filename G:\__New\_EAC rips\Thelonious Monk - The Complete Albums Collection 1954-57  [CD EN5CD9048]  (2015) 5cd flac\CD2\09 - Trinkle Tinkle.wav

     Peak level 97.9 %
     Extraction speed 3.7 X
     Track quality 100.0 %
     Test CRC 8D80952D
     Copy CRC 8D80952D
     Accurately ripped (confidence 15)  [78D483BF]  (AR v2)
     Copy OK

Track 10

     Filename G:\__New\_EAC rips\Thelonious Monk - The Complete Albums Collection 1954-57  [CD EN5CD9048]  (2015) 5cd flac\CD2\10 - These Foolish Things.wav

     Peak level 97.9 %
     Extraction speed 3.8 X
     Track quality 100.0 %
     Test CRC 1744979F
     Copy CRC 1744979F
     Accurately ripped (confidence 15)  [7DFA0D8B]  (AR v2)
     Copy OK

Track 11

     Filename G:\__New\_EAC rips\Thelonious Monk - The Complete Albums Collection 1954-57  [CD EN5CD9048]  (2015) 5cd flac\CD2\11 - We See.wav

     Peak level 97.5 %
     Extraction speed 4.3 X
     Track quality 100.0 %
     Test CRC 8EFDD83E
     Copy CRC 8EFDD83E
     Accurately ripped (confidence 15)  [E635B257]  (AR v2)
     Copy OK

Track 12

     Filename G:\__New\_EAC rips\Thelonious Monk - The Complete Albums Collection 1954-57  [CD EN5CD9048]  (2015) 5cd flac\CD2\12 - Smoke Gets in Your Eyes.wav

     Peak level 97.9 %
     Extraction speed 4.4 X
     Track quality 100.0 %
     Test CRC 510F84E6
     Copy CRC 510F84E6
     Accurately ripped (confidence 15)  [3A6F79E9]  (AR v2)
     Copy OK

Track 13

     Filename G:\__New\_EAC rips\Thelonious Monk - The Complete Albums Collection 1954-57  [CD EN5CD9048]  (2015) 5cd flac\CD2\13 - Locomotive.wav

     Peak level 99.0 %
     Extraction speed 4.8 X
     Track quality 100.0 %
     Test CRC F5D05487
     Copy CRC F5D05487
     Accurately ripped (confidence 15)  [43E9AD5C]  (AR v2)
     Copy OK

Track 14

     Filename G:\__New\_EAC rips\Thelonious Monk - The Complete Albums Collection 1954-57  [CD EN5CD9048]  (2015) 5cd flac\CD2\14 - Hackensack.wav

     Peak level 98.9 %
     Extraction speed 4.9 X
     Track quality 100.0 %
     Test CRC 13525D06
     Copy CRC 13525D06
     Accurately ripped (confidence 15)  [704073A5]  (AR v2)
     Copy OK

Track 15

     Filename G:\__New\_EAC rips\Thelonious Monk - The Complete Albums Collection 1954-57  [CD EN5CD9048]  (2015) 5cd flac\CD2\15 - Let's Call This.wav

     Peak level 97.0 %
     Extraction speed 5.0 X
     Track quality 100.0 %
     Test CRC F417BA8D
     Copy CRC F417BA8D
     Accurately ripped (confidence 15)  [1EA40E8D]  (AR v2)
     Copy OK

Track 16

     Filename G:\__New\_EAC rips\Thelonious Monk - The Complete Albums Collection 1954-57  [CD EN5CD9048]  (2015) 5cd flac\CD2\16 - Think of One (take 2).wav

     Peak level 97.3 %
     Extraction speed 5.2 X
     Track quality 100.0 %
     Test CRC B2866FCE
     Copy CRC B2866FCE
     Accurately ripped (confidence 15)  [9294CB3A]  (AR v2)
     Copy OK

Track 17

     Filename G:\__New\_EAC rips\Thelonious Monk - The Complete Albums Collection 1954-57  [CD EN5CD9048]  (2015) 5cd flac\CD2\17 - Think of One (take 1).wav

     Peak level 97.2 %
     Extraction speed 4.9 X
     Track quality 99.9 %
     Test CRC 2A1FDFFC
     Copy CRC 2A1FDFFC
     Accurately ripped (confidence 14)  [7CB82FE6]  (AR v2)
     Copy OK

All tracks accurately ripped

No errors occurred

End of status report

---- CUETools DB Plugin V2.1.6

[CTDB TOCID: NQHrSmeNPYZcqB6TrbnJK6tcnxA-] found
Submit result: NQHrSmeNPYZcqB6TrbnJK6tcnxA- has been confirmed
Track | CTDB Status
  1   | (31/32) Accurately ripped
  2   | (31/32) Accurately ripped
  3   | (31/32) Accurately ripped
  4   | (31/32) Accurately ripped
  5   | (31/32) Accurately ripped
  6   | (31/32) Accurately ripped
  7   | (31/32) Accurately ripped
  8   | (31/32) Accurately ripped
  9   | (31/32) Accurately ripped
 10   | (31/32) Accurately ripped
 11   | (31/32) Accurately ripped
 12   | (31/32) Accurately ripped
 13   | (31/32) Accurately ripped
 14   | (31/32) Accurately ripped
 15   | (31/32) Accurately ripped
 16   | (31/32) Accurately ripped
 17   | (30/32) Accurately ripped

==== Log checksum 0551211018B3D6B8B2DDA59568DCA75F15924FD03CCB4A0DA5011278C76FE65D ====

Трeклист:

01. The Way You Look Tonight [5:16]
02. I Want to Be Happy [7:45]
03. Work [5:19]
04. Nutty [5:18]
05. Friday the 13th [10:34]
06. It Don't Mean a Thing If It Ain't Got That Swing [4:42]
07. Sophisticated Lady [4:32]
08. I Got It Bad and That Ain't Good [5:57]
09. Black and Tan Fantasy [3:29]
10. Mood Indigo [3:17]
11. I Let a Song Go Out of My Heart [5:44]
12. Solitude [3:46]
13. Caravan [5:58]

Продолжительность:
01:11:35
Код: Выделить всё
Exact Audio Copy V1.3 from 2. September 2016

EAC extraction logfile from 2. December 2019, 9:35

Thelonious Monk / The Complete Albums Collection, 1954-57

Used drive  : SONY    DVD RW AD-7280S   Adapter: 1  ID: 1

Read mode               : Secure
Utilize accurate stream : Yes
Defeat audio cache      : Yes
Make use of C2 pointers : No

Read offset correction                      : 48
Overread into Lead-In and Lead-Out          : No
Fill up missing offset samples with silence : Yes
Delete leading and trailing silent blocks   : No
Null samples used in CRC calculations       : Yes
Used interface                              : Native Win32 interface for Win NT & 2000
Gap handling                                : Appended to previous track

Used output format              : User Defined Encoder
Selected bitrate                : 1024 kBit/s
Quality                         : High
Add ID3 tag                     : No
Command line compressor         : C:\Program Files (x86)\Exact Audio Copy\Flac\flac.exe
Additional command line options : -8 -e -p -V -T "ARTIST=%artist%" -T "TITLE=%title%" -T "ALBUM=%albumtitle%" -T "DATE=%year%" -T "TRACKNUMBER=%tracknr%" -T "GENRE=%genre%" -T "PERFORMER=%albuminterpret%" -T "COMPOSER=%composer%" %haslyrics%--tag-from-file=LYRICS="%lyricsfile%"%haslyrics% -T "ALBUMARTIST=%albumartist%" -T "DISCNUMBER=%cdnumber%" -T "TOTALDISCS=%totalcds%" -T "TOTALTRACKS=%numtracks%" -T "COMMENT=%comment%" %source% -o %dest%

TOC of the extracted CD

     Track |   Start  |  Length  | Start sector | End sector
    ---------------------------------------------------------
        1  |  0:00.00 |  5:16.22 |         0    |    23721
        2  |  5:16.22 |  7:44.56 |     23722    |    58577
        3  | 13:01.03 |  5:18.54 |     58578    |    82481
        4  | 18:19.57 |  5:17.39 |     82482    |   106295
        5  | 23:37.21 | 10:34.11 |    106296    |   153856
        6  | 34:11.32 |  4:42.01 |    153857    |   175007
        7  | 38:53.33 |  4:31.62 |    175008    |   195394
        8  | 43:25.20 |  5:57.00 |    195395    |   222169
        9  | 49:22.20 |  3:28.41 |    222170    |   237810
       10  | 52:50.61 |  3:16.52 |    237811    |   252562
       11  | 56:07.38 |  5:43.66 |    252563    |   278353
       12  | 61:51.29 |  3:45.67 |    278354    |   295295
       13  | 65:37.21 |  5:57.54 |    295296    |   322124

Track  1

     Filename G:\__New\_EAC rips\Thelonious Monk - The Complete Albums Collection 1954-57  [CD EN5CD9048]  (2015) 5cd flac\CD3\01 - The Way You Look Tonight.wav

     Pre-gap length  0:00:02.00

     Peak level 60.7 %
     Extraction speed 2.5 X
     Track quality 100.0 %
     Test CRC 47D719FE
     Copy CRC 47D719FE
     Accurately ripped (confidence 2)  [FE38E86C]  (AR v2)
     Copy OK

Track  2

     Filename G:\__New\_EAC rips\Thelonious Monk - The Complete Albums Collection 1954-57  [CD EN5CD9048]  (2015) 5cd flac\CD3\02 - I Want To Be Happy.wav

     Peak level 60.4 %
     Extraction speed 3.0 X
     Track quality 100.0 %
     Test CRC 58497A6F
     Copy CRC 58497A6F
     Accurately ripped (confidence 2)  [BF7C672A]  (AR v2)
     Copy OK

Track  3

     Filename G:\__New\_EAC rips\Thelonious Monk - The Complete Albums Collection 1954-57  [CD EN5CD9048]  (2015) 5cd flac\CD3\03 - Work.wav

     Peak level 83.8 %
     Extraction speed 2.9 X
     Track quality 99.9 %
     Test CRC 1912F4BF
     Copy CRC 1912F4BF
     Accurately ripped (confidence 2)  [62EB7300]  (AR v2)
     Copy OK

Track  4

     Filename G:\__New\_EAC rips\Thelonious Monk - The Complete Albums Collection 1954-57  [CD EN5CD9048]  (2015) 5cd flac\CD3\04 - Nutty.wav

     Peak level 63.0 %
     Extraction speed 3.6 X
     Track quality 100.0 %
     Test CRC F968DB2A
     Copy CRC F968DB2A
     Accurately ripped (confidence 2)  [DAC9079E]  (AR v2)
     Copy OK

Track  5

     Filename G:\__New\_EAC rips\Thelonious Monk - The Complete Albums Collection 1954-57  [CD EN5CD9048]  (2015) 5cd flac\CD3\05 - Friday The 13th.wav

     Peak level 49.9 %
     Extraction speed 4.1 X
     Track quality 100.0 %
     Test CRC 279DA77F
     Copy CRC 279DA77F
     Accurately ripped (confidence 2)  [F35063B1]  (AR v2)
     Copy OK

Track  6

     Filename G:\__New\_EAC rips\Thelonious Monk - The Complete Albums Collection 1954-57  [CD EN5CD9048]  (2015) 5cd flac\CD3\06 - It Don't Mean A Thing (If It Ain't Got That Swing).wav

     Peak level 98.3 %
     Extraction speed 4.1 X
     Track quality 100.0 %
     Test CRC C2F803F0
     Copy CRC C2F803F0
     Accurately ripped (confidence 2)  [1908E9E5]  (AR v2)
     Copy OK

Track  7

     Filename G:\__New\_EAC rips\Thelonious Monk - The Complete Albums Collection 1954-57  [CD EN5CD9048]  (2015) 5cd flac\CD3\07 - Sophisticated Lady.wav

     Peak level 99.7 %
     Extraction speed 4.3 X
     Track quality 100.0 %
     Test CRC 58A3D736
     Copy CRC 58A3D736
     Accurately ripped (confidence 2)  [7451B998]  (AR v2)
     Copy OK

Track  8

     Filename G:\__New\_EAC rips\Thelonious Monk - The Complete Albums Collection 1954-57  [CD EN5CD9048]  (2015) 5cd flac\CD3\08 - I Got It Bad And That Ain't Good.wav

     Peak level 100.0 %
     Extraction speed 4.6 X
     Track quality 100.0 %
     Test CRC A2B6B7B0
     Copy CRC A2B6B7B0
     Accurately ripped (confidence 2)  [A65106F7]  (AR v2)
     Copy OK

Track  9

     Filename G:\__New\_EAC rips\Thelonious Monk - The Complete Albums Collection 1954-57  [CD EN5CD9048]  (2015) 5cd flac\CD3\09 - Black & Tan Fantasy.wav

     Peak level 95.1 %
     Extraction speed 4.5 X
     Track quality 100.0 %
     Test CRC C73D7EF6
     Copy CRC C73D7EF6
     Accurately ripped (confidence 2)  [263304EE]  (AR v2)
     Copy OK

Track 10

     Filename G:\__New\_EAC rips\Thelonious Monk - The Complete Albums Collection 1954-57  [CD EN5CD9048]  (2015) 5cd flac\CD3\10 - Mood Indigo.wav

     Peak level 100.0 %
     Extraction speed 4.5 X
     Track quality 100.0 %
     Test CRC A226CA1E
     Copy CRC A226CA1E
     Accurately ripped (confidence 2)  [2B3AAE3E]  (AR v2)
     Copy OK

Track 11

     Filename G:\__New\_EAC rips\Thelonious Monk - The Complete Albums Collection 1954-57  [CD EN5CD9048]  (2015) 5cd flac\CD3\11 - I Let A Song Go Out Of My Heart.wav

     Peak level 100.0 %
     Extraction speed 5.0 X
     Track quality 100.0 %
     Test CRC CB024E3A
     Copy CRC CB024E3A
     Accurately ripped (confidence 2)  [B6BD7418]  (AR v2)
     Copy OK

Track 12

     Filename G:\__New\_EAC rips\Thelonious Monk - The Complete Albums Collection 1954-57  [CD EN5CD9048]  (2015) 5cd flac\CD3\12 - Solitude.wav

     Peak level 92.0 %
     Extraction speed 4.6 X
     Track quality 100.0 %
     Test CRC 65B31180
     Copy CRC 65B31180
     Accurately ripped (confidence 2)  [C3393C73]  (AR v2)
     Copy OK

Track 13

     Filename G:\__New\_EAC rips\Thelonious Monk - The Complete Albums Collection 1954-57  [CD EN5CD9048]  (2015) 5cd flac\CD3\13 - Caravan.wav

     Peak level 97.3 %
     Extraction speed 5.3 X
     Track quality 100.0 %
     Test CRC 5C470A01
     Copy CRC 5C470A01
     Accurately ripped (confidence 2)  [40DB7024]  (AR v2)
     Copy OK

All tracks accurately ripped

No errors occurred

End of status report

---- CUETools DB Plugin V2.1.6

[CTDB TOCID: 2kstoF7GHoTI1RxIG_D3dNEMK9U-] found
Submit result: 2kstoF7GHoTI1RxIG_D3dNEMK9U- has been confirmed
Track | CTDB Status
  1   | (30/31) Accurately ripped
  2   | (30/31) Accurately ripped
  3   | (30/31) Accurately ripped
  4   | (30/31) Accurately ripped
  5   | (30/31) Accurately ripped
  6   | (30/31) Accurately ripped
  7   | (30/31) Accurately ripped
  8   | (30/31) Accurately ripped
  9   | (30/31) Accurately ripped
 10   | (30/31) Accurately ripped
 11   | (30/31) Accurately ripped
 12   | (30/31) Accurately ripped
 13   | (31/31) Accurately ripped

==== Log checksum E56CAE6E4213451F1A2A3678E4EFFE7DB32F22904CD058331438642B3DED6C8D ====

Трeклист:

01. Liza [3:14]
02. Memories of You [4:17]
03. Honeysuckle Rose [5:34]
04. Darn That Dream [6:31]
05. Tea for Two [5:55]
06. You Are Too Beautiful [4:56]
07. Just You, Just Me [7:58]
08. Brilliant Corners [7:44]
09. Ba-Lue Bolivar Ba-Lues-Are [13:07]
10. Pannonica [8:50]
11. I Surrender, Dear [5:27]
12. Bemsha Swing [7:41]

Продолжительность:
01:21:14
Код: Выделить всё
Exact Audio Copy V1.3 from 2. September 2016

EAC extraction logfile from 2. December 2019, 10:31

Thelonious Monk / The Complete Albums Collection 1954-57

Used drive  : SONY    DVD RW AD-7280S   Adapter: 1  ID: 1

Read mode               : Secure
Utilize accurate stream : Yes
Defeat audio cache      : Yes
Make use of C2 pointers : No

Read offset correction                      : 48
Overread into Lead-In and Lead-Out          : No
Fill up missing offset samples with silence : Yes
Delete leading and trailing silent blocks   : No
Null samples used in CRC calculations       : Yes
Used interface                              : Native Win32 interface for Win NT & 2000
Gap handling                                : Appended to previous track

Used output format              : User Defined Encoder
Selected bitrate                : 1024 kBit/s
Quality                         : High
Add ID3 tag                     : No
Command line compressor         : C:\Program Files (x86)\Exact Audio Copy\Flac\flac.exe
Additional command line options : -8 -e -p -V -T "ARTIST=%artist%" -T "TITLE=%title%" -T "ALBUM=%albumtitle%" -T "DATE=%year%" -T "TRACKNUMBER=%tracknr%" -T "GENRE=%genre%" -T "PERFORMER=%albuminterpret%" -T "COMPOSER=%composer%" %haslyrics%--tag-from-file=LYRICS="%lyricsfile%"%haslyrics% -T "ALBUMARTIST=%albumartist%" -T "DISCNUMBER=%cdnumber%" -T "TOTALDISCS=%totalcds%" -T "TOTALTRACKS=%numtracks%" -T "COMMENT=%comment%" %source% -o %dest%

TOC of the extracted CD

     Track |   Start  |  Length  | Start sector | End sector
    ---------------------------------------------------------
        1  |  0:00.00 |  3:14.12 |         0    |    14561
        2  |  3:14.12 |  4:17.00 |     14562    |    33836
        3  |  7:31.12 |  5:34.00 |     33837    |    58886
        4  | 13:05.12 |  6:30.73 |     58887    |    88209
        5  | 19:36.10 |  5:55.00 |     88210    |   114834
        6  | 25:31.10 |  4:56.00 |    114835    |   137034
        7  | 30:27.10 |  7:57.45 |    137035    |   172854
        8  | 38:24.55 |  7:44.30 |    172855    |   207684
        9  | 46:09.10 | 13:06.64 |    207685    |   266698
       10  | 59:15.74 |  8:50.00 |    266699    |   306448
       11  | 68:05.74 |  5:26.42 |    306449    |   330940
       12  | 73:32.41 |  7:41.34 |    330941    |   365549

Track  1

     Filename G:\__New\_EAC rips\Thelonious Monk - The Complete Albums Collection 1954-57  [CD EN5CD9048]  (2015) 5cd flac\CD4\01 - Liza.wav

     Pre-gap length  0:00:02.00

     Peak level 86.1 %
     Extraction speed 2.5 X
     Track quality 100.0 %
     Test CRC 64D82A3B
     Copy CRC 64D82A3B
     Accurately ripped (confidence 6)  [DA96722B]  (AR v2)
     Copy OK

Track  2

     Filename G:\__New\_EAC rips\Thelonious Monk - The Complete Albums Collection 1954-57  [CD EN5CD9048]  (2015) 5cd flac\CD4\02 - Memories Of You.wav

     Peak level 79.7 %
     Extraction speed 2.8 X
     Track quality 100.0 %
     Test CRC ABC433E6
     Copy CRC ABC433E6
     Accurately ripped (confidence 6)  [D16DC6B0]  (AR v2)
     Copy OK

Track  3

     Filename G:\__New\_EAC rips\Thelonious Monk - The Complete Albums Collection 1954-57  [CD EN5CD9048]  (2015) 5cd flac\CD4\03 - Honeysuckle Rose.wav

     Peak level 87.3 %
     Extraction speed 2.9 X
     Track quality 99.9 %
     Test CRC A327F078
     Copy CRC A327F078
     Accurately ripped (confidence 6)  [8F7B500A]  (AR v2)
     Copy OK

Track  4

     Filename G:\__New\_EAC rips\Thelonious Monk - The Complete Albums Collection 1954-57  [CD EN5CD9048]  (2015) 5cd flac\CD4\04 - Darn That Dream.wav

     Peak level 88.6 %
     Extraction speed 3.4 X
     Track quality 100.0 %
     Test CRC D3FFF9F7
     Copy CRC D3FFF9F7
     Accurately ripped (confidence 6)  [61FB62FB]  (AR v2)
     Copy OK

Track  5

     Filename G:\__New\_EAC rips\Thelonious Monk - The Complete Albums Collection 1954-57  [CD EN5CD9048]  (2015) 5cd flac\CD4\05 - Tea For Two.wav

     Peak level 80.2 %
     Extraction speed 3.8 X
     Track quality 100.0 %
     Test CRC 19F9F58C
     Copy CRC 19F9F58C
     Accurately ripped (confidence 6)  [430E7F1D]  (AR v2)
     Copy OK

Track  6

     Filename G:\__New\_EAC rips\Thelonious Monk - The Complete Albums Collection 1954-57  [CD EN5CD9048]  (2015) 5cd flac\CD4\06 - You Are Too Beautiful.wav

     Peak level 86.6 %
     Extraction speed 4.0 X
     Track quality 100.0 %
     Test CRC 9A2BEBB8
     Copy CRC 9A2BEBB8
     Accurately ripped (confidence 6)  [1E784BD7]  (AR v2)
     Copy OK

Track  7

     Filename G:\__New\_EAC rips\Thelonious Monk - The Complete Albums Collection 1954-57  [CD EN5CD9048]  (2015) 5cd flac\CD4\07 - Just You, Just Me.wav

     Peak level 92.7 %
     Extraction speed 4.4 X
     Track quality 100.0 %
     Test CRC 59D68802
     Copy CRC 59D68802
     Accurately ripped (confidence 6)  [295E0664]  (AR v2)
     Copy OK

Track  8

     Filename G:\__New\_EAC rips\Thelonious Monk - The Complete Albums Collection 1954-57  [CD EN5CD9048]  (2015) 5cd flac\CD4\08 - Brilliant Corners.wav

     Peak level 91.6 %
     Extraction speed 4.7 X
     Track quality 100.0 %
     Test CRC 22C886B8
     Copy CRC 22C886B8
     Accurately ripped (confidence 6)  [BDA54A9C]  (AR v2)
     Copy OK

Track  9

     Filename G:\__New\_EAC rips\Thelonious Monk - The Complete Albums Collection 1954-57  [CD EN5CD9048]  (2015) 5cd flac\CD4\09 - Ba-Lue Bolivar Ba-Lues-Are.wav

     Peak level 100.0 %
     Extraction speed 5.1 X
     Track quality 99.9 %
     Test CRC F51F027B
     Copy CRC F51F027B
     Accurately ripped (confidence 6)  [470F9CAA]  (AR v2)
     Copy OK

Track 10

     Filename G:\__New\_EAC rips\Thelonious Monk - The Complete Albums Collection 1954-57  [CD EN5CD9048]  (2015) 5cd flac\CD4\10 - Pannonica.wav

     Peak level 84.8 %
     Extraction speed 5.6 X
     Track quality 100.0 %
     Test CRC 6D947DD2
     Copy CRC 6D947DD2
     Accurately ripped (confidence 6)  [A3B8C0D1]  (AR v2)
     Copy OK

Track 11

     Filename G:\__New\_EAC rips\Thelonious Monk - The Complete Albums Collection 1954-57  [CD EN5CD9048]  (2015) 5cd flac\CD4\11 - I Surrender, Dear.wav

     Peak level 98.7 %
     Extraction speed 5.5 X
     Track quality 100.0 %
     Test CRC E0623DAF
     Copy CRC E0623DAF
     Accurately ripped (confidence 5)  [1257266F]  (AR v2)
     Copy OK

Track 12

     Filename G:\__New\_EAC rips\Thelonious Monk - The Complete Albums Collection 1954-57  [CD EN5CD9048]  (2015) 5cd flac\CD4\12 - Bemsha Swing.wav

     Peak level 63.5 %
     Extraction speed 5.2 X
     Track quality 99.9 %
     Test CRC F31886CA
     Copy CRC F31886CA
     Accurately ripped (confidence 5)  [BEF66A97]  (AR v2)
     Copy OK

All tracks accurately ripped

No errors occurred

End of status report

---- CUETools DB Plugin V2.1.6

[CTDB TOCID: vB_aEUTPeUYoxBIYPfaRgMDe9j8-] found
Submit result: vB_aEUTPeUYoxBIYPfaRgMDe9j8- has been confirmed
Track | CTDB Status
  1   | (33/35) Accurately ripped
  2   | (33/35) Accurately ripped
  3   | (33/35) Accurately ripped
  4   | (33/35) Accurately ripped
  5   | (33/35) Accurately ripped
  6   | (33/35) Accurately ripped
  7   | (33/35) Accurately ripped
  8   | (33/35) Accurately ripped
  9   | (33/35) Accurately ripped
 10   | (33/35) Accurately ripped
 11   | (32/35) Accurately ripped
 12   | (32/35) Accurately ripped

==== Log checksum 3F82E850D7A40BFA70693CA1BEA9144CB80629E0DCF9F7CA5ACF11E391814095 ====

Трeклист:

01. Abide with Me [0:55]
02. Well, You Needn't [11:25]
03. Ruby, My Dear [5:26]
04. Off Minor [5:09]
05. Epistrophy [10:46]
06. Crepuscule with Nellie [4:41]
07. 'Round Midnight [8:29]
08. Rhythm-A-Ning [5:20]
09. Sweet and Lovely [7:17]
10. Decidedly [5:54]
11. Straight, No Chaser [7:01]
12. I Mean You [6:54]

Продолжительность:
01:19:17
Код: Выделить всё
Exact Audio Copy V1.3 from 2. September 2016

EAC extraction logfile from 2. December 2019, 11:53

Thelonious Monk / The Complete Albums Collection, 1954-57

Used drive  : SONY    DVD RW AD-7280S   Adapter: 1  ID: 1

Read mode               : Secure
Utilize accurate stream : Yes
Defeat audio cache      : Yes
Make use of C2 pointers : No

Read offset correction                      : 48
Overread into Lead-In and Lead-Out          : No
Fill up missing offset samples with silence : Yes
Delete leading and trailing silent blocks   : No
Null samples used in CRC calculations       : Yes
Used interface                              : Native Win32 interface for Win NT & 2000
Gap handling                                : Appended to previous track

Used output format              : User Defined Encoder
Selected bitrate                : 1024 kBit/s
Quality                         : High
Add ID3 tag                     : No
Command line compressor         : C:\Program Files (x86)\Exact Audio Copy\Flac\flac.exe
Additional command line options : -8 -e -p -V -T "ARTIST=%artist%" -T "TITLE=%title%" -T "ALBUM=%albumtitle%" -T "DATE=%year%" -T "TRACKNUMBER=%tracknr%" -T "GENRE=%genre%" -T "PERFORMER=%albuminterpret%" -T "COMPOSER=%composer%" %haslyrics%--tag-from-file=LYRICS="%lyricsfile%"%haslyrics% -T "ALBUMARTIST=%albumartist%" -T "DISCNUMBER=%cdnumber%" -T "TOTALDISCS=%totalcds%" -T "TOTALTRACKS=%numtracks%" -T "COMMENT=%comment%" %source% -o %dest%

TOC of the extracted CD

     Track |   Start  |  Length  | Start sector | End sector
    ---------------------------------------------------------
        1  |  0:00.00 |  0:55.20 |         0    |     4144
        2  |  0:55.20 | 11:25.22 |      4145    |    55541
        3  | 12:20.42 |  5:26.00 |     55542    |    79991
        4  | 17:46.42 |  5:08.47 |     79992    |   103138
        5  | 22:55.14 | 10:45.63 |    103139    |   151576
        6  | 33:41.02 |  4:40.39 |    151577    |   172615
        7  | 38:21.41 |  8:29.32 |    172616    |   210822
        8  | 46:50.73 |  5:19.60 |    210823    |   234807
        9  | 52:10.58 |  7:17.18 |    234808    |   267600
       10  | 59:28.01 |  5:54.00 |    267601    |   294150
       11  | 65:22.01 |  7:00.43 |    294151    |   325693
       12  | 72:22.44 |  6:54.31 |    325694    |   356774

Track  1

     Filename G:\__New\_EAC rips\Thelonious Monk - The Complete Albums Collection 1954-57  [CD EN5CD9048]  (2015) 5cd flac\CD5\01 - Abide with Me.wav

     Pre-gap length  0:00:02.00

     Peak level 82.9 %
     Extraction speed 1.7 X
     Track quality 100.0 %
     Test CRC 8BF6D7C1
     Copy CRC 8BF6D7C1
     Accurately ripped (confidence 8)  [E471398A]  (AR v2)
     Copy OK

Track  2

     Filename G:\__New\_EAC rips\Thelonious Monk - The Complete Albums Collection 1954-57  [CD EN5CD9048]  (2015) 5cd flac\CD5\02 - Well, You Needn't.wav

     Peak level 99.8 %
     Extraction speed 3.1 X
     Track quality 100.0 %
     Test CRC 2BDE815B
     Copy CRC 2BDE815B
     Accurately ripped (confidence 8)  [E67FE806]  (AR v2)
     Copy OK

Track  3

     Filename G:\__New\_EAC rips\Thelonious Monk - The Complete Albums Collection 1954-57  [CD EN5CD9048]  (2015) 5cd flac\CD5\03 - Ruby, My Dear.wav

     Peak level 80.6 %
     Extraction speed 3.1 X
     Track quality 99.9 %
     Test CRC DE998985
     Copy CRC DE998985
     Accurately ripped (confidence 8)  [E5500558]  (AR v2)
     Copy OK

Track  4

     Filename G:\__New\_EAC rips\Thelonious Monk - The Complete Albums Collection 1954-57  [CD EN5CD9048]  (2015) 5cd flac\CD5\04 - Off Minor.wav

     Peak level 99.6 %
     Extraction speed 3.6 X
     Track quality 100.0 %
     Test CRC A2D23D1A
     Copy CRC A2D23D1A
     Accurately ripped (confidence 8)  [7A6399C4]  (AR v2)
     Copy OK

Track  5

     Filename G:\__New\_EAC rips\Thelonious Monk - The Complete Albums Collection 1954-57  [CD EN5CD9048]  (2015) 5cd flac\CD5\05 - Epistrophy.wav

     Peak level 99.6 %
     Extraction speed 4.1 X
     Track quality 100.0 %
     Test CRC EB7A0B69
     Copy CRC EB7A0B69
     Accurately ripped (confidence 8)  [08066DB1]  (AR v2)
     Copy OK

Track  6

     Filename G:\__New\_EAC rips\Thelonious Monk - The Complete Albums Collection 1954-57  [CD EN5CD9048]  (2015) 5cd flac\CD5\06 - Crepuscle with Nellie.wav

     Peak level 64.7 %
     Extraction speed 3.8 X
     Track quality 99.9 %
     Test CRC F1E4C97E
     Copy CRC F1E4C97E
     Accurately ripped (confidence 8)  [20B2F1A1]  (AR v2)
     Copy OK

Track  7

     Filename G:\__New\_EAC rips\Thelonious Monk - The Complete Albums Collection 1954-57  [CD EN5CD9048]  (2015) 5cd flac\CD5\07 - 'Round Midnight.wav

     Peak level 54.6 %
     Extraction speed 4.8 X
     Track quality 100.0 %
     Test CRC B16DCD48
     Copy CRC B16DCD48
     Accurately ripped (confidence 8)  [BF4ED07B]  (AR v2)
     Copy OK

Track  8

     Filename G:\__New\_EAC rips\Thelonious Monk - The Complete Albums Collection 1954-57  [CD EN5CD9048]  (2015) 5cd flac\CD5\08 - Rhythm-a-Ning.wav

     Peak level 62.9 %
     Extraction speed 4.8 X
     Track quality 100.0 %
     Test CRC FC8DABAE
     Copy CRC FC8DABAE
     Accurately ripped (confidence 8)  [6F12736B]  (AR v2)
     Copy OK

Track  9

     Filename G:\__New\_EAC rips\Thelonious Monk - The Complete Albums Collection 1954-57  [CD EN5CD9048]  (2015) 5cd flac\CD5\09 - Sweet and Lovely.wav

     Peak level 52.1 %
     Extraction speed 4.9 X
     Track quality 99.9 %
     Test CRC F36E58AE
     Copy CRC F36E58AE
     Accurately ripped (confidence 8)  [7E0DE346]  (AR v2)
     Copy OK

Track 10

     Filename G:\__New\_EAC rips\Thelonious Monk - The Complete Albums Collection 1954-57  [CD EN5CD9048]  (2015) 5cd flac\CD5\10 - Decidedly.wav

     Peak level 58.9 %
     Extraction speed 5.4 X
     Track quality 100.0 %
     Test CRC DCE95642
     Copy CRC DCE95642
     Accurately ripped (confidence 8)  [11BBA061]  (AR v2)
     Copy OK

Track 11

     Filename G:\__New\_EAC rips\Thelonious Monk - The Complete Albums Collection 1954-57  [CD EN5CD9048]  (2015) 5cd flac\CD5\11 - Straight, No Chaser.wav

     Peak level 65.4 %
     Extraction speed 5.6 X
     Track quality 100.0 %
     Test CRC B783FBB8
     Copy CRC B783FBB8
     Accurately ripped (confidence 8)  [F6114C65]  (AR v2)
     Copy OK

Track 12

     Filename G:\__New\_EAC rips\Thelonious Monk - The Complete Albums Collection 1954-57  [CD EN5CD9048]  (2015) 5cd flac\CD5\12 - I Mean You.wav

     Peak level 67.6 %
     Extraction speed 5.8 X
     Track quality 100.0 %
     Test CRC 9ED0BA6F
     Copy CRC 9ED0BA6F
     Accurately ripped (confidence 8)  [39627CC3]  (AR v2)
     Copy OK

All tracks accurately ripped

No errors occurred

End of status report

---- CUETools DB Plugin V2.1.6

[CTDB TOCID: afLB4ewRbQXfZWeA7m8NBMw.JvM-] found
Submit result: afLB4ewRbQXfZWeA7m8NBMw.JvM- has been confirmed
Track | CTDB Status
  1   | (34/46) Accurately ripped
  2   | (34/46) Accurately ripped
  3   | (34/46) Accurately ripped
  4   | (33/46) Accurately ripped
  5   | (34/46) Accurately ripped
  6   | (34/46) Accurately ripped
  7   | (34/46) Accurately ripped
  8   | (34/46) Accurately ripped
  9   | (34/46) Accurately ripped
 10   | (34/46) Accurately ripped
 11   | (34/46) Accurately ripped
 12   | (34/46) Accurately ripped

==== Log checksum 6FB997B8D7AFF49CCC7F660A53A58D24D4120AAF2153EB3204C5765F9ABE7C83 ====

Время раздачи: c 15:00 до 22:00 (до появления первых 3-5 скачавших)
Не забывайте говорить Спасибо. Не уходите с раздачи!   
Торрент: Зарегистрирован [14 фев 2020, 07:39]
Статус:
Проверен
 
.torrent скачан: 0 раз
Хэш: 5486cdd5889165e7b1e3bcfc3a7255c403ef2813
Размер: 1.81 ГБ (1 942 559 501 байт)
   Стать Автором раздачи
   
Цитата

Вернуться в Jazz

Кто сейчас на конференции

Сейчас эту тему просматривают: нет зарегистрированных пользователей и гости: 1