Рыбья упряжка (1982) WEBRip

 Статистика раздачи 
Размер: 298.19 МБ   |  Зарегистрирован: 08 фев 2020, 18:51   |   .torrent скачан: 0 раз
Сидеров: 0  [ 0 байт/сек ]     Личеров: 0  [ 0 байт/сек ]  
  
Аватара пользователя
 
Раздал: 6.64 ТБ
Скачал: 597.93 ГБ
Ратио: 11.363
Сообщения: 264344
Стаж: 3 года 2 месяца 15 дней
СообщениеДобавлено: 08 фев 2020, 18:51


Рыбья упряжка (1982) WEBRip

Производство: СССР / Союзмультфильм
Жанр: Короткометражный, рисованная анимация

Режиссер: Станислав Соколов
Актеры: Клара Румянова, Нина Русланова, Вячеслав Богачёв, Анна Каменкова, Александр Баранов

Описание:
Мультфильм поставлен по сказкам народов тайги и тундры. В него вошли три сюжета: ительментские сказки «Ворон Кутх», «Улитка» и эскимосская сказка «Букашка-путешественница».


Возраст: 12+ (зрителям, достигшим 12 лет)

Продолжительность: 00:18:32
Качество видео: WEBRip
Субтитры: Отсутствуют

Видео: Xvid, 720x514 (4:3), ~2040 Kbps
Аудио: AC3, 2 ch, 192 Kbps
Код: Выделить всё
Общее
Полное имя                               : D:\Рыбья упряжка (1982).WEBRip.avi
Формат                                   : AVI
Формат/Информация                        : Audio Video Interleave
Размер файла                             : 298 Мбайт
Продолжительность                        : 18 м. 33 с.
Общий поток                              : 2246 Кбит/сек
Программа кодирования                    : Lavf58.20.100

Видео
Идентификатор                            : 0
Формат                                   : MPEG-4 Visual
Профиль формата                          : Advanced Simple@L5
Настройки формата                        : BVOP2
Параметр BVOP формата                    : 2
Параметр QPel формата                    : Нет
Параметр GMC формата                     : Без точки перехода
Параметр матрицы формата                 : Default (MPEG)
Идентификатор кодека                     : XVID
Идентификатор кодека/Подсказка           : XviD
Продолжительность                        : 18 м. 33 с.
Битрейт                                  : 2043 Кбит/сек
Ширина                                   : 720 пикселей
Высота                                   : 514 пикселей
Соотношение сторон                       : 4:3
Частота кадров                           : 24,000 кадра/сек
Цветовое пространство                    : YUV
Субдискретизация насыщенности            : 4:2:0
Битовая глубина                          : 8 бит
Тип развёртки                            : Прогрессивная
Метод сжатия                             : С потерями
Бит/(Пиксели*Кадры)                      : 0.230
Размер потока                            : 271 Мбайт (91%)
Заголовок                                : Mainconcept Video Media Handler
Библиотека кодирования                   : XviD 67

Аудио
Идентификатор                            : 1
Формат                                   : AC-3
Формат/Информация                        : Audio Coding 3
Коммерческое название                    : Dolby Digital
Идентификатор кодека                     : 2000
Продолжительность                        : 18 м. 33 с.
Вид битрейта                             : Постоянный
Битрейт                                  : 192 Кбит/сек
Каналы                                   : 2 канала
ChannelLayout                            : L R
Частота                                  : 48,0 КГц
Частота кадров                           : 31,250 кадров/сек (1536 SPF)
Битовая глубина                          : 16 бит
Метод сжатия                             : С потерями
Размер потока                            : 25,5 Мбайт (9%)
Выравнивание                             : Соединение по промежуткам
Продолжительность промежутка             : 32  мс. (0,77 видеокадр)
Заголовок                                : #Mainconcept MP4 Sound Media Handler
ServiceKind/String                       : Complete Main

Скриншоты:


Время раздачи: 24/7 (круглосуточно) (до появления первых 3-5 скачавших)
Не забывайте говорить Спасибо. Не уходите с раздачи!   
Торрент: Зарегистрирован [08 фев 2020, 18:51]
Статус:
Проверен
 
.torrent скачан: 0 раз
Хэш: 52e10624138223280c025f27b3f5a5c57c314213
Размер: 298.19 МБ (312 678 484 байт)
   Стать Автором раздачи
   
Цитата

Вернуться в Короткометражные

Кто сейчас на конференции

Сейчас эту тему просматривают: нет зарегистрированных пользователей и гости: 1