Семьи Сильвании. Город мечты / Calico Critters / Sylvanian Families. A Town of Dreams (Момоко Камия / Momoko Kamiya) [2017, Япония, мультфильм, короткометражка, WEB-DL 1080p] Dub + Original Eng + Sub (eng)

 Статистика раздачи 
Размер: 284.48 МБ   |  Зарегистрирован: 17 ноя 2019, 11:22   |   .torrent скачан: 0 раз
Сидеров: 0  [ 0 байт/сек ]     Личеров: 0  [ 0 байт/сек ]  
  
Аватара пользователя
 
Раздал: 6.64 ТБ
Скачал: 597.93 ГБ
Ратио: 11.363
Сообщения: 264344
Стаж: 3 года 2 месяца 15 дней

Семьи Сильвании. Город мечты
Sylvanian Families. A Town of Dreams
Год выпуска: 2017
Страна: Япония
Жанр: мультфильм, короткометражка
Продолжительность: 00:11:34
Перевод: Профессиональный (Дублированный)
русские субтитры: нет
Режиссёр: Момоко Камия / Momoko Kamiya
Роли озвучивали: Джорджи Фуллер, Джессика Хиндс-Минго, Маюми Кавай, Сара Сумерэй, Аликс Мэйси, Дженна Шарп, Хелен Клэпп, Бернадетт Вандеркар
Роли дублировали: Илья Хвостиков, Мария Овчинникова, Татьяна Шитова, Полина Щербакова, Анна Киселева, Алена Созинова, Василиса Воронина
Описание: Сегодня особенный день. Одна взволнованная маленькая девочка собирается в город, чтобы навестить свою старшую сестру, которая создала красивое платье для показа мод!
релиз:
Качество: WEB-DL 1080p (Netflix)
Формат: MKV
Видео кодек: AVC
Аудио кодек: E-AC3
Видео: 1920x1080 , 24 fps, ~3320 kbps avg, 0.067 bit/pixel
Аудио #1: [RUS] 48 kHz, E-AC3, 2 ch, ~128 kbps avg
Аудио #2: [ENG] 48 kHz, E-AC3, 2 ch, ~128 kbps avg
субтитры: английские
Общее
Уникальный идентификатор : 15299040748985400552077481123321003587 (0xB827CF225EB7995BA2EC0B6F2F8BE43)
Полное имя : D:\Mult\Sylvanian Families. A Town of Dreams.2017.WEB-DL 1080p.mkv
Формат : Matroska
Версия формата : Version 4 / Version 2
Размер файла : 284 Мбайт
Продолжительность : 11 м. 34 с.
Режим общего битрейта : Переменный
Общий поток : 3435 Кбит/сек
Дата кодирования : UTC 2019-11-16 22:26:28
Программа кодирования : mkvmerge v40.0.0 ('Old Town Road + Pony') 64-bit
Библиотека кодирования : libebml v1.3.9 + libmatroska v1.5.2
Видео
Идентификатор : 1
Формат : AVC
Формат/Информация : Advanced Video Codec
Профиль формата : Main@L4
Настройки формата : CABAC / 3 Ref Frames
Параметр CABAC формата : Да
Параметр RefFrames формата : 3 кадра
Идентификатор кодека : V_MPEG4/ISO/AVC
Продолжительность : 11 м. 34 с.
Вид битрейта : Переменный
Битрейт : 3320 Кбит/сек
Максимальный битрейт : 4980 Кбит/сек
Ширина : 1920 пикселей
Высота : 1080 пикселей
Соотношение сторон : 16:9
Режим частоты кадров : Постоянный
Частота кадров : 24,000 кадра/сек
Цветовое пространство : YUV
Субдискретизация насыщенности : 4:2:0
Битовая глубина : 8 бит
Тип развёртки : Прогрессивная
Бит/(Пиксели*Кадры) : 0.067
Размер потока : 263 Мбайт (92%)
Библиотека кодирования : x264 core 148 r2715 7e75228
Настройки программы : cabac=1 / ref=3 / deblock=1:0:0 / analyse=0x1:0x111 / me=umh / subme=10 / psy=1 / psy_rd=1.00:0.00 / mixed_ref=1 / me_range=24 / chroma_me=1 / trellis=2 / 8x8dct=0 / cqm=0 / deadzone=21,11 / fast_pskip=1 / chroma_qp_offset=-2 / threads=6 / lookahead_threads=1 / sliced_threads=0 / nr=0 / decimate=1 / interlaced=0 / bluray_compat=0 / stitchable=1 / constrained_intra=0 / bframes=2 / b_pyramid=0 / b_adapt=2 / b_bias=0 / direct=3 / weightb=1 / open_gop=0 / weightp=2 / keyint=48 / keyint_min=25 / scenecut=0 / intra_refresh=0 / rc_lookahead=48 / rc=2pass / mbtree=1 / bitrate=3320 / ratetol=1.0 / qcomp=0.50 / qpmin=6 / qpmax=51 / qpstep=4 / cplxblur=20.0 / qblur=0.5 / vbv_maxrate=4980 / vbv_bufsize=6640 / nal_hrd=vbr / filler=0 / ip_ratio=1.40 / aq=1:1.00
Default : Да
Forced : Нет
Аудио #1
Идентификатор : 2
Формат : E-AC-3
Формат/Информация : Enhanced Audio Coding 3
Идентификатор кодека : A_EAC3
Продолжительность : 11 м. 34 с.
Вид битрейта : Постоянный
Битрейт : 128 Кбит/сек
Каналы : 2 канала
Расположение каналов : Front: L R
Частота : 48,0 КГц
Частота кадров : 187,500 кадров/сек (256 SPF)
Метод сжатия : С потерями
Размер потока : 10,6 Мбайт (4%)
Заголовок : DUB
Язык : Russian
ServiceKind/String : Complete Main
Default : Да
Forced : Нет
Аудио #2
Идентификатор : 3
Формат : E-AC-3
Формат/Информация : Enhanced Audio Coding 3
Идентификатор кодека : A_EAC3
Продолжительность : 11 м. 34 с.
Вид битрейта : Постоянный
Битрейт : 128 Кбит/сек
Каналы : 2 канала
Расположение каналов : Front: L R
Частота : 48,0 КГц
Частота кадров : 187,500 кадров/сек (256 SPF)
Метод сжатия : С потерями
Размер потока : 10,6 Мбайт (4%)
Заголовок : ENG
Язык : English
ServiceKind/String : Complete Main
Default : Нет
Forced : Нет
Текст
Идентификатор : 4
Формат : UTF-8
Идентификатор кодека : S_TEXT/UTF8
Идентификатор кодека/Информация : UTF-8 Plain Text
Продолжительность : 10 м. 56 с.
Битрейт : 76 бит/сек
ElementCount : 175
Размер потока : 6,10 Кбайт (0%)
Заголовок : English
Язык : English
Default : Нет
Forced : Нет
Не забывайте говорить Спасибо. Не уходите с раздачи!   
Торрент: Зарегистрирован [17 ноя 2019, 11:22]
Статус:
Проверен
 
.torrent скачан: 0 раз
Хэш: 412f1d019beabbbc2e8357dea83bb394778f1fc2
Размер: 284.48 МБ (298 294 547 байт)
   Стать Автором раздачи
   
Цитата
  • Похожие торренты
    Ответы
    Просмотры
    Последнее сообщение

Вернуться в Короткометражные

Кто сейчас на конференции

Сейчас эту тему просматривают: нет зарегистрированных пользователей и гости: 1