Супер Гиджет / Super Gidget (Борис Жак / Boris Jacq, Гленн МакКой / Glenn McCoy) [2019, США, мультфильм, короткометражка, BDRemux 1080p] Dub + Original eng + Sub (rus, eng)

 Статистика раздачи 
Размер: 616.02 МБ   |  Зарегистрирован: 20 окт 2019, 13:24   |   .torrent скачан: 0 раз
Сидеров: 0  [ 0 байт/сек ]     Личеров: 0  [ 0 байт/сек ]  
  
Аватара пользователя
 
Раздал: 6.64 ТБ
Скачал: 597.93 ГБ
Ратио: 11.363
Сообщения: 264344
Стаж: 3 года 2 месяца 15 дней

Супер Гиджет
Super Gidget
Год выпуска: 2019
Страна: США
Жанр: мультфильм, короткометражка
Продолжительность: 00:03:49
Перевод: Профессиональный (Дублированный)
русские субтитры: есть
Режиссёр: Борис Жак / Boris Jacq, Гленн МакКой / Glenn McCoy
Роли озвучивали: Дженни Слейт, Пэттон Освальт, Гилберт Готтфрид, Бобби Мойнахан, Мона Маршалл, Джесс Харнелл
Описание: Гиджет должна спасти Макса от злой блохи Блохобякуса, ведь она супер-собака.
релиз:
Качество: BDRemux 1080p (Исходник: Blu-ray disc 1080p)
Формат: MKV
Видео кодек: AVC
Аудио кодек: AC3
Видео: 1920x1080 , 23.976 fps, ~21,2 Мbps avg, 0.427 bit/pixel
Аудио #1: [RUS] 48 kHz, AC3 Dolby Digital, 3/2 (L,C,R,l,r) + LFE ch, ~640 kbps avg
Аудио #2: [ENG] 48 kHz, AC3 Dolby Digital, 3/2 (L,C,R,l,r) + LFE ch, ~640 kbps avg
субтитры: русские, английские
Общее
Уникальный идентификатор : 74821899465955150076894917162175895023 (0x384A2C757D35D5D5FA114A1AC95515EF)
Полное имя : D:\Mult\Super Gedget.2019.BDRemux 1080p.mkv
Формат : Matroska
Версия формата : Version 4 / Version 2
Размер файла : 616 Мбайт
Продолжительность : 3 м. 49 с.
Режим общего битрейта : Переменный
Общий поток : 22,5 Мбит/сек
Название фильма : Super Gedget.2019.BDRemux 1080p -Azureus-
Дата кодирования : UTC 2019-10-20 11:30:51
Программа кодирования : mkvmerge v37.0.0 ('Leave It') 64-bit
Библиотека кодирования : libebml v1.3.9 + libmatroska v1.5.2
Видео
Идентификатор : 1
Формат : AVC
Формат/Информация : Advanced Video Codec
Профиль формата : High@L4.1
Настройки формата : CABAC / 4 Ref Frames
Параметр CABAC формата : Да
Параметр RefFrames формата : 4 кадра
Идентификатор кодека : V_MPEG4/ISO/AVC
Продолжительность : 3 м. 49 с.
Вид битрейта : Переменный
Битрейт : 21,2 Мбит/сек
Максимальный битрейт : 35,0 Мбит/сек
Ширина : 1920 пикселей
Высота : 1080 пикселей
Соотношение сторон : 16:9
Режим частоты кадров : Постоянный
Частота кадров : 23,976 (24000/1001) кадра/сек
Цветовое пространство : YUV
Субдискретизация насыщенности : 4:2:0
Битовая глубина : 8 бит
Тип развёртки : Прогрессивная
Бит/(Пиксели*Кадры) : 0.427
Размер потока : 581 Мбайт (94%)
Язык : English
Default : Да
Forced : Нет
Аудио #1
Идентификатор : 2
Формат : AC-3
Формат/Информация : Audio Coding 3
Идентификатор кодека : A_AC3
Продолжительность : 3 м. 49 с.
Вид битрейта : Постоянный
Битрейт : 640 Кбит/сек
Каналы : 6 каналов
Расположение каналов : Front: L C R, Side: L R, LFE
Частота : 48,0 КГц
Частота кадров : 31,250 кадров/сек (1536 SPF)
Битовая глубина : 16 бит
Метод сжатия : С потерями
Размер потока : 17,5 Мбайт (3%)
Заголовок : DUB
Язык : Russian
ServiceKind/String : Complete Main
Default : Да
Forced : Нет
Аудио #2
Идентификатор : 3
Формат : AC-3
Формат/Информация : Audio Coding 3
Идентификатор кодека : A_AC3
Продолжительность : 3 м. 49 с.
Вид битрейта : Постоянный
Битрейт : 640 Кбит/сек
Каналы : 6 каналов
Расположение каналов : Front: L C R, Side: L R, LFE
Частота : 48,0 КГц
Частота кадров : 31,250 кадров/сек (1536 SPF)
Битовая глубина : 16 бит
Метод сжатия : С потерями
Размер потока : 17,5 Мбайт (3%)
Заголовок : ENG
Язык : English
ServiceKind/String : Complete Main
Default : Нет
Forced : Нет
Текст #1
Идентификатор : 4
Формат : UTF-8
Идентификатор кодека : S_TEXT/UTF8
Идентификатор кодека/Информация : UTF-8 Plain Text
Продолжительность : 3 м. 42 с.
Битрейт : 33 бит/сек
ElementCount : 29
Размер потока : 933 байт (0%)
Заголовок : Rus Sub - full
Язык : Russian
Default : Нет
Forced : Нет
Текст #2
Идентификатор : 5
Формат : UTF-8
Идентификатор кодека : S_TEXT/UTF8
Идентификатор кодека/Информация : UTF-8 Plain Text
Продолжительность : 3 м. 12 с.
Битрейт : 54 бит/сек
ElementCount : 69
Размер потока : 1,28 Кбайт (0%)
Заголовок : Eng Sub -SDH
Язык : English
Default : Нет
Forced : Нет
Не забывайте говорить Спасибо. Не уходите с раздачи!   
Торрент: Зарегистрирован [20 окт 2019, 13:24]
Статус:
Проверен
 
.torrent скачан: 0 раз
Хэш: 55c9e10aff59834acb2dbf640fe47cf462697cac
Размер: 616.02 МБ (645 941 397 байт)
   Стать Автором раздачи
   
Цитата

Вернуться в Короткометражные

Кто сейчас на конференции

Сейчас эту тему просматривают: нет зарегистрированных пользователей и гости: 1