Чёрный и синий / Black and Blue (2019) BDRip 720p от k.e.n & MegaPeer | iTunes

 Статистика раздачи 
Размер: 4.02 ГБ   |  Зарегистрирован: 13 янв 2020, 20:12   |   .torrent скачан: 0 раз
Сидеров: 0  [ 0 байт/сек ]     Личеров: 0  [ 0 байт/сек ]  
  
Аватара пользователя
 
Раздал: 6.64 ТБ
Скачал: 597.93 ГБ
Ратио: 11.363
Сообщения: 252822
Стаж: 2 года 10 месяцев 2 дня

Информация о фильме
Название: Чёрный и синий
Оригинальное название: Black and Blue
Год выпуска: 2019
Жанр: Боевик, триллер, драма, криминал
Режиссер: Деон Тейлор
В ролях: Майк Колтер, Фрэнк Грилло, Рейд Скотт, Наоми Харрис, Бо Напп, Тайриз Гибсон, Кеннет Кинт Брайан, Нафиса Уильямс, Майкл Пападжон, Нельсон Бонилья

О фильме:
Камера закрепленная на теле полицейской-новобранца из Детройта фиксирует факты коррупционных связей местной полиции и криминальных банд. И теперь, чтобы уничтожить отснятый материал, на главную героиню устраивают масштабную облаву.



Страна: США
Студия: Hidden Empire Film Group, Royal Viking Entertainment, Screen Gems
Продолжительность: 01:47:57
Перевод: Профессиональный (многоголосый, закадровый) | iTunes

Файл
Формат: MKV
Качество: BDRip 720p
Видео: AVC, 1280x536 (2.40:1), 23.976 fps, 4500 kbps
Аудио #1: AC3, 48 kHz, 6 ch, 384 kbps (Russian)
Аудио #2: AC3, 48 kHz, 6 ch, 448 kbps (English)
Субтитры: Russian, English

Релиз от: &

x264 [info]: frame I:1312 Avg QP:14.64 size:111701
x264 [info]: frame P:35949 Avg QP:17.29 size: 44033
x264 [info]: frame B:118033 Avg QP:19.48 size: 16199

Format : Matroska
Format version : Version 2
File size : 4.02 GiB
Duration : 1 h 47 min
Overall bit rate : 5 332 kb/s
Encoded date : UTC 2020-01-13 17:06:35
Writing application : mkvmerge v5.3.0 ('I could have danced') built on Feb 9 2012 10:38:07
Writing library : libebml v1.2.3 + libmatroska v1.3.0
Cover : Yes
Attachments : cover.png

Video
ID : 1
Format : AVC
Format/Info : Advanced Video Codec
Format profile : High@L4.1
Format settings : CABAC / 12 Ref Frames
Format settings, CABAC : Yes
Format settings, Reference frames : 12 frames
Codec ID : V_MPEG4/ISO/AVC
Duration : 1 h 47 min
Bit rate : 4 500 kb/s
Width : 1 280 pixels
Height : 536 pixels
Display aspect ratio : 2.40:1
Frame rate mode : Constant
Frame rate : 23.976 (24000/1001) FPS
Color space : YUV
Chroma subsampling : 4:2:0
Bit depth : 8 bits
Scan type : Progressive
Bits/(Pixel*Frame) : 0.274
Stream size : 3.31 GiB (82%)
Writing library : x264 core 158 r2984 3759fcb
Encoding settings : cabac=1 / ref=12 / deblock=1:-3:-3 / analyse=0x3:0x133 / me=umh / subme=11 / psy=1 / psy_rd=1.00:0.00 / mixed_ref=1 / me_range=32 / chroma_me=1 / trellis=2 / 8x8dct=1 / cqm=0 / deadzone=21,11 / fast_pskip=0 / chroma_qp_offset=-2 / threads=12 / lookahead_threads=3 / sliced_threads=0 / nr=0 / decimate=0 / interlaced=0 / bluray_compat=0 / constrained_intra=0 / bframes=12 / b_pyramid=2 / b_adapt=2 / b_bias=0 / direct=3 / weightb=1 / open_gop=0 / weightp=2 / keyint=240 / keyint_min=23 / scenecut=40 / intra_refresh=0 / rc_lookahead=60 / rc=2pass / mbtree=0 / bitrate=4500 / ratetol=1.0 / qcomp=0.65 / qpmin=0 / qpmax=69 / qpstep=4 / cplxblur=20.0 / qblur=0.5 / vbv_maxrate=50000 / vbv_bufsize=62500 / nal_hrd=none / filler=0 / ip_ratio=1.40 / pb_ratio=1.30 / aq=3:0.90
Language : English
Default : Yes
Forced : No
Color range : Limited
Color primaries : BT.709
Transfer characteristics : BT.709
Matrix coefficients : BT.709

Audio #1
ID : 2
Format : AC-3
Format/Info : Audio Coding 3
Commercial name : Dolby Digital
Codec ID : A_AC3
Duration : 1 h 47 min
Bit rate mode : Constant
Bit rate : 384 kb/s
Channel(s) : 6 channels
Channel layout : L R C LFE Ls Rs
Sampling rate : 48.0 kHz
Frame rate : 31.250 FPS (1536 SPF)
Bit depth : 16 bits
Compression mode : Lossy
Stream size : 296 MiB (7%)
Title : MVO (iTunes)
Language : Russian
Service kind : Complete Main
Default : Yes
Forced : No

Audio #2
ID : 3
Format : AC-3
Format/Info : Audio Coding 3
Commercial name : Dolby Digital
Codec ID : A_AC3
Duration : 1 h 47 min
Bit rate mode : Constant
Bit rate : 448 kb/s
Channel(s) : 6 channels
Channel layout : L R C LFE Ls Rs
Sampling rate : 48.0 kHz
Frame rate : 31.250 FPS (1536 SPF)
Bit depth : 16 bits
Compression mode : Lossy
Stream size : 346 MiB (8%)
Title : Original
Language : English
Service kind : Complete Main
Default : No
Forced : No

Text #1
ID : 4
Format : UTF-8
Codec ID : S_TEXT/UTF8
Codec ID/Info : UTF-8 Plain Text
Language : Russian
Default : Yes
Forced : No

Text #2
ID : 5
Format : UTF-8
Codec ID : S_TEXT/UTF8
Codec ID/Info : UTF-8 Plain Text
Language : English
Default : No
Forced : No

Menu
00:00:00.000 : :Chapter 01
00:05:26.284 : :Chapter 02
00:10:36.886 : :Chapter 03
00:16:38.581 : :Chapter 04
00:23:32.995 : :Chapter 05
00:30:25.532 : :Chapter 06
00:39:08.888 : :Chapter 07
00:47:23.674 : :Chapter 08
00:55:04.176 : :Chapter 09
01:01:54.544 : :Chapter 10
01:09:42.595 : :Chapter 11
01:17:41.782 : :Chapter 12
01:21:47.152 : :Chapter 13
01:24:41.368 : :Chapter 14
01:30:23.710 : :Chapter 15
01:40:20.973 : :Chapter 16

Не забывайте говорить Спасибо. Не уходите с раздачи!   
Торрент: Зарегистрирован [13 янв 2020, 20:12]
Статус:
Проверен
 
.torrent скачан: 0 раз
Хэш: e7b99cb3b25471afa4c9e86bdd7b0179e1d7f24b
Размер: 4.02 ГБ (4 317 186 523 байт)
   Стать Автором раздачи
   
Цитата
  • Похожие торренты
    Ответы
    Просмотры
    Последнее сообщение

Вернуться в Зарубежное кино (HD Video)

Кто сейчас на конференции

Сейчас эту тему просматривают: нет зарегистрированных пользователей и гости: 1