Лузеры / The Losers (2010) BDRip 720p | D

 Статистика раздачи 
Размер: 4.64 ГБ   |  Зарегистрирован: 13 янв 2020, 19:17   |   .torrent скачан: 0 раз
Сидеров: 0  [ 0 байт/сек ]     Личеров: 0  [ 0 байт/сек ]  
  
Аватара пользователя
Я на сайте
 
Раздал: 6.64 ТБ
Скачал: 597.93 ГБ
Ратио: 11.363
Сообщения: 252367
Стаж: 2 года 9 месяцев 27 дней
СообщениеДобавлено: 13 янв 2020, 19:17


«А вы были бы уже мертвы.»

[font=Georgia]Инфа:
Год выпуска: 2010
Страна: США
Жанр: боевик, триллер, приключения, криминал, детектив
Продолжительность: 01:36:58
Перевод: Профессиональный (полное дублирование) |Лицензия|
Субтитры: Английские

Режиссер: Лузеры / Losers, The
Актеры: Джеффри Дин Морган, Зои Салдана, Крис Эванс, Идрис Эльба, Коламбус Шорт, Оскар Хаенада, Джейсон Патрик, Холт МакКэллани, Питер Макдисси, Питер Френсис Джеймс

Описание фильма:
«Лузеры» сумасшедший экшн о предательстве и мести, рассказывающий о членах элитного отряда специального назначения, которых отправили в джунгли Боливии. Им поставили задачу «найти и уничтожить», но на месте выясняется, что команду Клэя, Дженсена, Рока, Пуча и Кугара подставили, и они попали под перекрестный огонь двух противоборствующих лагерей. Смертельное противостояние было спровоцировано изнутри могущественным врагом, о котором известно лишь одно: его имя Макс. Решив сыграть на том, что они числятся погибшими, члены отряда уходят в глубокое подполье и составляют опасный план по восстановлению своей репутации и сведению счетов с Максом. К ним присоединяется загадочная Аиша красавица-агент, работающая по заданию, но вполне способная внести коррективы в заданный сверху план. В перерывах между разборками друг с другом им необходимо всегда оставаться на шаг впереди разъезжающего по всему миру Макса беспощадного негодяя, намеревающегося втянуть мир в новую высокотехнологичную мировую войну только ради собственной выгоды. Если они смогут победить Макса и одновременно спасти мир, это будет настоящей удачей для команды, известной теперь как ЛУЗЕРЫ.


Премьера (мир).......... 22 апреля 2010
Премьера (РФ)............ 1 июля 2010, «Каро-Премьер»
Релиз на DVD.............. 31 августа 2010, «Юниверсал Пикчерс Рус»


Формат : Matroska
Версия формата : Version 2
Размер файла : 4,64 Гбайт
Продолжительность : 1 ч. 37 м.
Общий поток : 6841 Кбит/сек
Дата кодирования : UTC 2010-08-31 19:58:56
Программа кодирования : mkvmerge v3.3.0 ('Language') built on Mar 24 2010 14:59:24
Библиотека кодирования : libebml v0.8.0 + libmatroska v0.9.0

Видео
Идентификатор : 1
Формат : AVC
Формат/Информация : Advanced Video Codec
Профиль формата : High@L3.1
Параметр CABAC формата : Да
Параметр ReFrames формата : 5 кадров
Идентификатор кодека : V_MPEG4/ISO/AVC
Продолжительность : 1 ч. 37 м.
Битрейт : 4947 Кбит/сек
Ширина : 1280 пикселей
Высота : 536 пикселей
Соотношение сторон : 2,40:1
Режим частоты кадров : Постоянный
Частота кадров : 23,976 кадра/сек
Цветовое пространство : YUV
Субдискретизация насыщенности : 4:2:0
Битовая глубина : 8 бит
Тип развёртки : Прогрессивная
Бит/(Пиксели*Кадры) : 0.301
Размер потока : 3,26 Гбайт (70%)
Библиотека кодирования : x264 core 102 r1666 d058f37
Настройки программы : cabac=1 / ref=5 / deblock=1:0:0 / analyse=0x3:0x113 / me=umh / subme=7 / psy=1 / psy_rd=1.00:0.20 / mixed_ref=1 / me_range=16 / chroma_me=1 / trellis=1 / 8x8dct=1 / cqm=0 / deadzone=21,11 / fast_pskip=1 / chroma_qp_offset=-3 / threads=6 / sliced_threads=0 / nr=0 / decimate=1 / interlaced=0 / constrained_intra=0 / bframes=3 / b_pyramid=2 / b_adapt=1 / b_bias=0 / direct=3 / weightb=1 / open_gop=0 / weightp=0 / keyint=250 / keyint_min=25 / scenecut=40 / intra_refresh=0 / rc_lookahead=40 / rc=2pass / mbtree=1 / bitrate=4947 / ratetol=1.0 / qcomp=0.60 / qpmin=10 / qpmax=51 / qpstep=4 / cplxblur=20.0 / qblur=0.5 / ip_ratio=1.40 / aq=1:1.00
Язык : English
Default : Нет
Forced : Нет

Аудио #1
Идентификатор : 2
Формат : AC-3
Формат/Информация : Audio Coding 3
Расширение режима : CM (complete main)
Параметр Endianness формата : Big
Идентификатор кодека : A_AC3
Продолжительность : 1 ч. 37 м.
Вид битрейта : Постоянный
Битрейт : 384 Кбит/сек
Каналы : 6 каналов
Расположение каналов : Front: L C R, Side: L R, LFE
Частота : 48,0 КГц
Битовая глубина : 16 бит
Метод сжатия : С потерями
Размер потока : 266 Мбайт (6%)
Заголовок : Russian DUB
Язык : Russian
Default : Да
Forced : Нет

Аудио #2
Идентификатор : 3
Формат : DTS
Формат/Информация : Digital Theater Systems
Режим : 16
Параметр Endianness формата : Big
Идентификатор кодека : A_DTS
Продолжительность : 1 ч. 37 м.
Вид битрейта : Постоянный
Битрейт : 1509 Кбит/сек
Каналы : 6 каналов
Расположение каналов : Front: L C R, Side: L R, LFE
Частота : 48,0 КГц
Битовая глубина : 24 бит
Метод сжатия : С потерями
Размер потока : 1,02 Гбайт (22%)
Заголовок : English DUB
Язык : English
Default : Нет
Forced : Нет

Текст
Идентификатор : 4
Формат : UTF-8
Идентификатор кодека : S_TEXT/UTF8
Идентификатор кодека/Информация : UTF-8 Plain Text
Язык : English
Default : Нет
Forced : Нет

Меню
00:00:00.000 : en:00:00:00.000
00:06:17.085 : en:00:06:17.085
00:10:47.355 : en:00:10:47.355
00:14:59.023 : en:00:14:59.023
00:20:54.879 : en:00:20:54.879
00:25:52.468 : en:00:25:52.468
00:31:21.546 : en:00:31:21.546
00:40:18.249 : en:00:40:18.249
00:46:43.134 : en:00:46:43.134
00:54:42.988 : en:00:54:42.988
00:59:43.205 : en:00:59:43.205
01:05:21.126 : en:01:05:21.126
01:12:58.583 : en:01:12:58.583
01:18:33.959 : en:01:18:33.959
01:26:28.725 : en:01:26:28.725
01:29:41.876 : en:01:29:41.876




Инфа файла:
Качество видео: BDRip [ 1080p ]
Видеокодек: x264
Формат: MKV
Видео: MPEG-4 AVC, 4947 Кбит/с, 1280x536, 23,976 кадр/сек
Аудио:(rus) AC3, 384 kb/s (6 ch)
Аудио:(eng) DTS, 1510 kb/s (6 ch)

Не забывайте говорить Спасибо. Не уходите с раздачи!   
Торрент: Зарегистрирован [13 янв 2020, 19:17]
Статус:
Проверен
 
.torrent скачан: 0 раз
Хэш: a53e1e7a586326f612400617576688d9152e0d60
Размер: 4.64 ГБ (4 977 287 023 байт)
   Стать Автором раздачи
   
Цитата
  • Похожие торренты
    Ответы
    Просмотры
    Последнее сообщение

Вернуться в Зарубежное кино (HD Video)

Кто сейчас на конференции

Сейчас эту тему просматривают: нет зарегистрированных пользователей и гости: 1