Призрак в школе / Haunted High (2012) BDRip 720p от SuperMin | P

 Статистика раздачи 
Размер: 3.26 ГБ   |  Зарегистрирован: 13 янв 2020, 18:54   |   .torrent скачан: 0 раз
Сидеров: 0  [ 0 байт/сек ]     Личеров: 0  [ 0 байт/сек ]  
  
Аватара пользователя
 
Раздал: 6.64 ТБ
Скачал: 597.93 ГБ
Ратио: 11.363
Сообщения: 270074
Стаж: 3 года 4 месяца 17 дней

Информация о фильме
Название: Призрак в школе
Оригинальное название: Haunted High
Год выпуска: 2012
Жанр: ужасы, фантастика
Режиссер: Джеффри Скотт Ландо
В ролях: М. К. Гейни, Лорен Пеннингтон, Шон С. Филлипс, Джонатан Барон, Дэнни Трехо, Гейб Бигнёд, Харизма Карпентер, Марк Донато, Sergio Figueroa, Стефани Фишер, Грифф Ферст


Частную школу в новой Англии посещает демон — мёртвый директор.


Страна: США
Студия: Active Entertainment
Продолжительность: 01:27:28
Перевод: профессиональный (многоголосый закадровый) SyFy
Файл
Кодек: H.264
Качество: BDRip 720
Видео: 1280x720 (16:9), 4496 kbps, 23.976 fps
Звук: Русский (AC3, 2ch, 192 Кбит/с)
Английский (AC-3, 6ch, 640 kbps)
Субтитры: немецкий хардсаб (только надписи)



x264 [info]: frame I:1321 Avg QP:16.13 size:100368
x264 [info]: frame P:27090 Avg QP:17.39 size: 47280
x264 [info]: frame B:97419 Avg QP:20.54 size: 15770
x264 [info]: consecutive B-frames: 2.2% 2.4% 9.3% 16.5% 19.4% 42.0% 5.4% 1.2% 1.6%
x264 [total]: encoded 125830 frames, 8.94 fps, 4496.35 kb/s

General
Unique ID : 47130325209272627368268031680704813276 (0x2374F870208D88BDE82A62E1569618DC)
Complete name : F:ФИЛЬМЫРУТОРПризрак в школе BDRip 720p.mkv
Format : Matroska
Format version : Version 4
File size : 3.26 GiB
Duration : 1 h 27 min
Overall bit rate : 5 330 kb/s
Movie name : Призрак в школе / Haunted High (2012) - #LORDKILL#
Encoded date : UTC 2020-01-13 13:29:14
Writing application : mkvmerge v32.0.0 ('Astral Progressions') 64-bit
Writing library : libebml v1.3.7 + libmatroska v1.5.0

Video
ID : 1
Format : AVC
Format/Info : Advanced Video Codec
Format profile : High@L4.1
Format settings : CABAC / 9 Ref Frames
Format settings, CABAC : Yes
Format settings, Reference : 9 frames
Codec ID : V_MPEG4/ISO/AVC
Duration : 1 h 27 min
Bit rate : 4 496 kb/s
Width : 1 280 pixels
Height : 720 pixels
Display aspect ratio : 16:9
Frame rate mode : Constant
Frame rate : 23.976 (24000/1001) FPS
Color space : YUV
Chroma subsampling : 4:2:0
Bit depth : 8 bits
Scan type : Progressive
Bits/(Pixel*Frame) : 0.203
Stream size : 2.75 GiB (84%)
Writing library : x264 core 146 r2538 121396c
Encoding settings : cabac=1 / ref=9 / deblock=1:-1:-1 / analyse=0x3:0x113 / me=umh / subme=10 / psy=1 / psy_rd=1.00:0.15 / mixed_ref=1 / me_range=32 / chroma_me=1 / trellis=2 / 8x8dct=1 / cqm=0 / deadzone=21,11 / fast_pskip=0 / chroma_qp_offset=-3 / threads=12 / lookahead_threads=2 / sliced_threads=0 / nr=0 / decimate=1 / interlaced=0 / bluray_compat=0 / constrained_intra=0 / bframes=8 / b_pyramid=2 / b_adapt=2 / b_bias=0 / direct=1 / weightb=1 / open_gop=0 / weightp=2 / keyint=240 / keyint_min=23 / scenecut=40 / intra_refresh=0 / rc=crf / mbtree=0 / crf=19.0 / qcomp=0.60 / qpmin=0 / qpmax=69 / qpstep=4 / ip_ratio=1.40 / pb_ratio=1.30 / aq=1:1.00
Language : English
Default : Yes
Forced : No

Audio #1
ID : 2
Format : AC-3
Format/Info : Audio Coding 3
Commercial name : Dolby Digital
Codec ID : A_AC3
Duration : 1 h 27 min
Bit rate mode : Constant
Bit rate : 192 kb/s
Channel(s) : 2 channels
Channel layout : L R
Sampling rate : 48.0 kHz
Frame rate : 31.250 FPS (1536 SPF)
Compression mode : Lossy
Stream size : 120 MiB (4%)
Title : Многоголосый закадровый (SyFy)
Language : Russian
Service kind : Complete Main
Default : Yes
Forced : No

Audio #2
ID : 3
Format : AC-3
Format/Info : Audio Coding 3
Commercial name : Dolby Digital
Codec ID : A_AC3
Duration : 1 h 27 min
Bit rate mode : Constant
Bit rate : 640 kb/s
Channel(s) : 6 channels
Channel layout : L R C LFE Ls Rs
Sampling rate : 48.0 kHz
Frame rate : 31.250 FPS (1536 SPF)
Compression mode : Lossy
Stream size : 400 MiB (12%)
Language : English
Service kind : Complete Main
Default : No
Forced : No

Menu
00:00:00.000 : en:00:00:00.000
00:09:59.974 : en:00:09:59.974
00:19:59.990 : en:00:19:59.990
00:29:59.965 : en:00:29:59.965
00:39:59.981 : en:00:39:59.981
00:49:59.955 : en:00:49:59.955
00:59:59.971 : en:00:59:59.971
01:09:59.946 : en:01:09:59.946
01:19:59.920 : en:01:19:59.920
Не забывайте говорить Спасибо. Не уходите с раздачи!   
Торрент: Зарегистрирован [13 янв 2020, 18:54]
Статус:
Проверен
 
.torrent скачан: 0 раз
Хэш: 5ba66acde14796a8dd5303fad385e24f7e349900
Размер: 3.26 ГБ (3 496 820 491 байт)
   Стать Автором раздачи
   
Цитата

Вернуться в Зарубежное кино (HD Video)

Кто сейчас на конференции

Сейчас эту тему просматривают: нет зарегистрированных пользователей и гости: 1