Лузеры / The Losers (2010) WEB-DLRip 720p от SuperMin | D | Open Matte

 Статистика раздачи 
Размер: 3.49 ГБ   |  Зарегистрирован: 13 янв 2020, 18:18   |   .torrent скачан: 697 раз
Сидеров: 49  [ 0 байт/сек ]     Личеров: 1  [ 0 байт/сек ]  
  
Аватара пользователя
 
Раздал: 6.64 ТБ
Скачал: 597.93 ГБ
Ратио: 11.363
Сообщения: 252822
Стаж: 2 года 10 месяцев 2 дня

Информация о фильме
Название: Лузеры
Оригинальное название: The Losers
Год выхода: 2010
Жанр: боевик, комедия
Режиссер: Сильвен Уайт
В ролях: Джеффри Дин Морган, Зои Салдана, Крис Эванс, Идрис Эльба, Коламбус Шорт, Оскар Хаенада, Джейсон Патрик, Холт МакКэллани, Питер Макдисси, Питер Френсис Джеймс


«Лузеры» — сумасшедший экшн о предательстве и мести, рассказывающий о членах элитного отряда специального назначения, которых отправили в джунгли Боливии. Им поставили задачу «найти и уничтожить», но на месте выясняется, что команду — Клэя, Дженсена, Рока, Пуча и Кугара — подставили, и они попали под перекрестный огонь двух противоборствующих лагерей. Смертельное противостояние было спровоцировано изнутри могущественным врагом, о котором известно лишь одно: его имя — Макс. Решив сыграть на том, что они числятся погибшими, члены отряда уходят в глубокое подполье и составляют опасный план по восстановлению своей репутации и сведению счетов с Максом. К ним присоединяется загадочная Аиша — красавица-агент, работающая по заданию, но вполне способная внести коррективы в заданный сверху план. В перерывах между разборками друг с другом им необходимо всегда оставаться на шаг впереди разъезжающего по всему миру Макса — беспощадного негодяя, намеревающегося втянуть мир в новую высокотехнологичную мировую войну только ради собственной выгоды. Если они смогут победить Макса и одновременно спасти мир, это будет настоящей удачей для команды, известной теперь как ЛУЗЕРЫ.


Страна: США
Студия: Dark Castle Entertainment, DC Entertainment, Weed Road Pictures.
Продолжительность: 01:37:03
Перевод: Дубляж

Файл
Кодек: H.264
Качество: WEB-DLRip 720p
Видео: 1280x720 (16:9), 3861 kbps, 23.976 fps
Звук: Русский (AC-3, 6ch, 640 kbps)
Оригинал (AC-3, 6ch, 640 kbps)
Субтитры: русские, украинские, английские


x264 [info]: frame I:1570 Avg QP:17.33 size:111487
x264 [info]: frame P:40976 Avg QP:18.94 size: 39603
x264 [info]: frame B:97146 Avg QP:21.93 size: 10439
x264 [info]: consecutive B-frames: 6.6% 10.3% 14.7% 23.8% 17.7% 23.2% 2.3% 0.6% 0.9%
x264 [total]: encoded 139692 frames, 7.84 fps, 3861.04 kb/s

General
Unique ID : 213383820762696138502244424908469391508 (0xA0883AA01A2074F54B59CA104BEB5094)
Complete name : F:ФИЛЬМЫРУТОРЛузеры (Open Matte) WEB-DLRip 720p.mkv
Format : Matroska
Format version : Version 4
File size : 3.49 GiB
Duration : 1 h 37 min
Overall bit rate : 5 143 kb/s
Movie name : Лузеры / The Losers (2010) (Open Matte) - #LORDKILL#
Encoded date : UTC 2020-01-13 13:13:25
Writing application : mkvmerge v32.0.0 ('Astral Progressions') 64-bit
Writing library : libebml v1.3.7 + libmatroska v1.5.0

Video
ID : 1
Format : AVC
Format/Info : Advanced Video Codec
Format profile : High@L4.1
Format settings : CABAC / 9 Ref Frames
Format settings, CABAC : Yes
Format settings, Reference : 9 frames
Codec ID : V_MPEG4/ISO/AVC
Duration : 1 h 37 min
Bit rate : 3 861 kb/s
Width : 1 280 pixels
Height : 720 pixels
Display aspect ratio : 16:9
Frame rate mode : Constant
Frame rate : 23.976 (24000/1001) FPS
Color space : YUV
Chroma subsampling : 4:2:0
Bit depth : 8 bits
Scan type : Progressive
Bits/(Pixel*Frame) : 0.175
Stream size : 2.62 GiB (75%)
Writing library : x264 core 146 r2538 121396c
Encoding settings : cabac=1 / ref=9 / deblock=1:-1:-1 / analyse=0x3:0x113 / me=umh / subme=10 / psy=1 / psy_rd=1.00:0.15 / mixed_ref=1 / me_range=32 / chroma_me=1 / trellis=2 / 8x8dct=1 / cqm=0 / deadzone=21,11 / fast_pskip=0 / chroma_qp_offset=-3 / threads=12 / lookahead_threads=2 / sliced_threads=0 / nr=0 / decimate=1 / interlaced=0 / bluray_compat=0 / constrained_intra=0 / bframes=8 / b_pyramid=2 / b_adapt=2 / b_bias=0 / direct=1 / weightb=1 / open_gop=0 / weightp=2 / keyint=240 / keyint_min=23 / scenecut=40 / intra_refresh=0 / rc=crf / mbtree=0 / crf=19.5 / qcomp=0.60 / qpmin=0 / qpmax=69 / qpstep=4 / ip_ratio=1.40 / pb_ratio=1.30 / aq=1:1.00
Default : Yes
Forced : No

Audio #1
ID : 2
Format : AC-3
Format/Info : Audio Coding 3
Commercial name : Dolby Digital
Codec ID : A_AC3
Duration : 1 h 37 min
Bit rate mode : Constant
Bit rate : 640 kb/s
Channel(s) : 6 channels
Channel layout : L R C LFE Ls Rs
Sampling rate : 48.0 kHz
Frame rate : 31.250 FPS (1536 SPF)
Compression mode : Lossy
Stream size : 444 MiB (12%)
Title : Дубляж
Language : Russian
Service kind : Complete Main
Default : Yes
Forced : No

Audio #2
ID : 3
Format : AC-3
Format/Info : Audio Coding 3
Commercial name : Dolby Digital
Codec ID : A_AC3
Duration : 1 h 37 min
Bit rate mode : Constant
Bit rate : 640 kb/s
Channel(s) : 6 channels
Channel layout : L R C LFE Ls Rs
Sampling rate : 48.0 kHz
Frame rate : 31.250 FPS (1536 SPF)
Compression mode : Lossy
Stream size : 444 MiB (12%)
Language : English
Service kind : Complete Main
Default : No
Forced : No

Text #1
ID : 4
Format : UTF-8
Codec ID : S_TEXT/UTF8
Codec ID/Info : UTF-8 Plain Text
Duration : 1 h 28 min
Bit rate : 1 b/s
Count of elements : 28
Stream size : 1 017 Bytes (0%)
Language : Russian
Default : No
Forced : No

Text #2
ID : 5
Format : UTF-8
Codec ID : S_TEXT/UTF8
Codec ID/Info : UTF-8 Plain Text
Duration : 1 h 31 min
Bit rate : 91 b/s
Count of elements : 1124
Stream size : 61.1 KiB (0%)
Language : Russian
Default : No
Forced : No

Text #3
ID : 6
Format : UTF-8
Codec ID : S_TEXT/UTF8
Codec ID/Info : UTF-8 Plain Text
Duration : 1 h 36 min
Bit rate : 79 b/s
Count of elements : 1126
Stream size : 55.9 KiB (0%)
Language : Ukrainian
Default : No
Forced : No

Text #4
ID : 7
Format : UTF-8
Codec ID : S_TEXT/UTF8
Codec ID/Info : UTF-8 Plain Text
Duration : 1 h 31 min
Bit rate : 54 b/s
Count of elements : 1102
Stream size : 36.6 KiB (0%)
Language : Ukrainian
Default : No
Forced : No

Text #5
ID : 8
Format : UTF-8
Codec ID : S_TEXT/UTF8
Codec ID/Info : UTF-8 Plain Text
Duration : 1 h 31 min
Bit rate : 58 b/s
Count of elements : 1210
Stream size : 39.4 KiB (0%)
Language : English
Default : No
Forced : No

Text #6
ID : 9
Format : UTF-8
Codec ID : S_TEXT/UTF8
Codec ID/Info : UTF-8 Plain Text
Duration : 1 h 32 min
Bit rate : 63 b/s
Count of elements : 1525
Stream size : 42.8 KiB (0%)
Title : SDH Amazon
Language : English
Default : No
Forced : No
Не забывайте говорить Спасибо. Не уходите с раздачи!   
Торрент: Зарегистрирован [13 янв 2020, 18:18]
Статус:
Проверен
 
.torrent скачан: 697 раз
Хэш: 011cbf625908aa01b049b492c4b7e00c06015541
Размер: 3.49 ГБ (3 745 727 051 байт)
   Стать Автором раздачи
   
Цитата
  • Похожие торренты
    Ответы
    Просмотры
    Последнее сообщение

Вернуться в Зарубежное кино (HD Video)

Кто сейчас на конференции

Сейчас эту тему просматривают: нет зарегистрированных пользователей и гости: 1