Корпоративные животные / Corporate Animals (2019) BDRip 1080p | iTunes

 Статистика раздачи 
Размер: 6.61 ГБ   |  Зарегистрирован: 13 янв 2020, 17:37   |   .torrent скачан: 0 раз
Сидеров: 0  [ 0 байт/сек ]     Личеров: 0  [ 0 байт/сек ]  
  
Аватара пользователя
Я на сайте
 
Раздал: 6.64 ТБ
Скачал: 597.93 ГБ
Ратио: 11.363
Сообщения: 252367
Стаж: 2 года 9 месяцев 27 дней

Информация о фильме
Название: Корпоративные животные
Оригинальное название: Corporate Animals
Год выхода: 2019
Жанр: Комедия, ужасы
Режиссер: Патрик Брайс
В ролях: Деми Мур, Эд Хелмс, Джессика Уильямс, Каран Сони, Исайя Уитлок мл., Марта Келли, Дэн Баккедаль, Кэлам Уорси, Дженнифер Ким, Назим Педрад
О фильме:
Люси руководит крупнейшей в Америке компанией по производству съедобной посуды. Она непрерывно сыпет общими фразами о командной работе и достижении целей ради коллектива, но на деле думает только о собственной выгоде. На тимбилдинге, который Люси организовывает для работников, происходит несчастный случай — команда спускается в подземные пещеры, но выход заваливает вместе с кинувшимся наутёк инструктором. Настало время для каждого сотрудника узнать истинное лицо коллег, начальницы и научиться настоящей работе в команде.
*


Страна: США
Студия: Pacific Electric Picture Company, Protagonist Pictures, Snoot Entertainment
Продолжительность: 01:25:53
Перевод: Профессиональный (полное дублирование) | iTunes
Файл
Качество: BDRip 1080p
Формат: MKV
Кодек: MPEG-4 AVC
Видео: 1920x800 (2,40:1), 23,976 fps, MPEG-4 AVC ~ 10 000 Kbps avg, 0.272 bit/pixel
Аудио: AC3, 48 kHz, 6 ch, ~384.00 kbps avg | русский | iTunes
Аудио: AC3, 48 kHz, 6 ch, ~640.00 kbps avg | английский | Оригинал
Субтитры: Английские (Full, SDH)

Общее
Уникальный идентификатор : 316519425573079286093712617713083790799 (0xEE1F6C893DE82D33CFCD64ED8E16B5CF)
Полное имя : Corporate.Animals.2019.1080p.BluRay.x264.mkv
Формат : Matroska
Версия формата : Version 4
Размер файла : 6,61 Гбайт
Продолжительность : 1 ч. 25 м.
Общий поток : 11,0 Мбит/сек
Название фильма : Корпоративные животные / Corporate Animals (2019)
Дата кодирования : UTC 2020-01-13 14:10:51
Программа кодирования : mkvmerge v41.0.0 ('Smarra') 64-bit
Библиотека кодирования : libebml v1.3.9 + libmatroska v1.5.2
Обложка : Yes
Attachments : cover.jpg

Видео
Идентификатор : 1
Формат : AVC
Формат/Информация : Advanced Video Codec
Профиль формата : High@L4.1
Настройки формата : CABAC / 4 Ref Frames
Параметр CABAC формата : Да
Параметр RefFrames формата : 4 кадра
Идентификатор кодека : V_MPEG4/ISO/AVC
Продолжительность : 1 ч. 25 м.
Битрейт : 10000 Кбит/сек
Ширина : 1920 пикселей
Высота : 800 пикселей
Соотношение сторон : 2,40:1
Режим частоты кадров : Постоянный
Частота кадров : 23,976 кадра/сек
Цветовое пространство : YUV
Субдискретизация насыщенности : 4:2:0
Битовая глубина : 8 бит
Тип развёртки : Прогрессивная
Бит/(Пиксели*Кадры) : 0.272
Размер потока : 5,99 Гбайт (91%)
Заголовок : #stillet
Библиотека кодирования : x264 core 152 r2851bm ba24899
Настройки программы : cabac=1 / ref=4 / deblock=1:-3:-3 / analyse=0x3:0x133 / me=umh / subme=10 / psy=1 / psy_rd=1.00:0.15 / mixed_ref=1 / me_range=32 / chroma_me=1 / trellis=2 / 8x8dct=1 / cqm=0 / deadzone=21,11 / fast_pskip=0 / chroma_qp_offset=-3 / threads=16 / lookahead_threads=3 / sliced_threads=0 / nr=0 / decimate=0 / interlaced=0 / bluray_compat=0 / constrained_intra=0 / bframes=10 / b_pyramid=2 / b_adapt=2 / b_bias=0 / direct=3 / weightb=1 / open_gop=0 / weightp=2 / keyint=240 / keyint_min=23 / scenecut=40 / intra_refresh=0 / rc_lookahead=40 / rc=2pass / mbtree=0 / bitrate=10000 / ratetol=1.0 / qcomp=0.60 / qpmin=0 / qpmax=69 / qpstep=4 / cplxblur=20.0 / qblur=0.5 / vbv_maxrate=50000 / vbv_bufsize=62500 / nal_hrd=none / filler=0 / ip_ratio=1.40 / pb_ratio=1.30 / aq=1:1.00
Язык : English
Default : Да
Forced : Нет

Аудио #1
Идентификатор : 2
Формат : AC-3
Формат/Информация : Audio Coding 3
Коммерческое название : Dolby Digital
Идентификатор кодека : A_AC3
Продолжительность : 1 ч. 25 м.
Вид битрейта : Постоянный
Битрейт : 384 Кбит/сек
Каналы : 6 каналов
ChannelLayout : L R C LFE Ls Rs
Частота : 48,0 КГц
Частота кадров : 31,250 кадров/сек (1536 SPF)
Метод сжатия : С потерями
Размер потока : 236 Мбайт (3%)
Заголовок : iTunes
Язык : Russian
Default : Да
Forced : Нет

Аудио #2
Идентификатор : 3
Формат : AC-3
Формат/Информация : Audio Coding 3
Коммерческое название : Dolby Digital
Идентификатор кодека : A_AC3
Продолжительность : 1 ч. 25 м.
Вид битрейта : Постоянный
Битрейт : 640 Кбит/сек
Каналы : 6 каналов
ChannelLayout : L R C LFE Ls Rs
Частота : 48,0 КГц
Частота кадров : 31,250 кадров/сек (1536 SPF)
Метод сжатия : С потерями
Размер потока : 393 Мбайт (6%)
Заголовок : Original
Язык : English
Default : Нет
Forced : Нет

Текст #1
Идентификатор : 4
Формат : UTF-8
Идентификатор кодека : S_TEXT/UTF8
Идентификатор кодека/Информация : UTF-8 Plain Text
Продолжительность : 1 ч. 25 м.
Битрейт : 79 бит/сек
ElementCount : 1852
Размер потока : 49,3 Кбайт (0%)
Заголовок : Full
Язык : English
Default : Нет
Forced : Нет

Текст #2
Идентификатор : 5
Формат : UTF-8
Идентификатор кодека : S_TEXT/UTF8
Идентификатор кодека/Информация : UTF-8 Plain Text
Продолжительность : 1 ч. 25 м.
Битрейт : 80 бит/сек
ElementCount : 1971
Размер потока : 50,7 Кбайт (0%)
Заголовок : SDH
Язык : English
Default : Нет
Forced : Нет

Не забывайте говорить Спасибо. Не уходите с раздачи!   
Торрент: Зарегистрирован [13 янв 2020, 17:37]
Статус:
Проверен
 
.torrent скачан: 0 раз
Хэш: 76394bc70bb9ede3fa0285081f2ee822d58674b1
Размер: 6.61 ГБ (7 095 950 568 байт)
   Стать Автором раздачи
   
Цитата

Вернуться в Зарубежное кино (HD Video)

Кто сейчас на конференции

Сейчас эту тему просматривают: нет зарегистрированных пользователей и гости: 1