Подсобка дьявола / The Shed (2019) BDRemux 1080p | iTunes

 Статистика раздачи 
Размер: 16.74 ГБ   |  Зарегистрирован: 13 янв 2020, 14:47   |   .torrent скачан: 0 раз
Сидеров: 0  [ 0 байт/сек ]     Личеров: 0  [ 0 байт/сек ]  
  
Аватара пользователя
Я на сайте
 
Раздал: 6.64 ТБ
Скачал: 597.93 ГБ
Ратио: 11.363
Сообщения: 252367
Стаж: 2 года 9 месяцев 27 дней

Информация о фильме
Название: Подсобка дьявола
Оригинальное название: The Shed
Год выхода: 2019
Жанр: Ужасы, драма
Режиссер: Фрэнк Сабателла
В ролях: Джей Джей Уоррен, Коуди Костро, София Хаппонен, Фрэнк Уэйли, Тимоти Боттомс, Шиван Фэллон, Крис Петровски, Франциско Бургос, Ули Шлезингер, Му-Шака Бенсон

О фильме:
Стэн рано лишился родителей и теперь живёт с грубым дедом, который только и делает, что пьёт и кричит на внука. В школе парню вместе с другом Доммером постоянно приходится отбиваться хулиганов, так что жизнь ребят нельзя назвать увлекательной. Однажды Стэн в собственном сарае для инструментов обнаруживает злобное существо — плотоядное порождение ночи — и с этого момента жизнь парня осложняется ещё сильнее.



Страна: США
Студия: A Bigger Boat, Sideshow Pictures
Продолжительность: 01:37:10
Перевод: Дублированный | iTunes

Файл
Кодек: x.264
Качество: BDRemux 1080p
Видео: MPEG-4 AVC, 20.8 Mбит/с, 1920x1080, 23.976 кадр/с
Аудио #1: Русский (АС3, 6 ch, 384 Кбит/с, 48.0 KHz) Профессиональный (дублированный) iTunes
Аудио #2: Английский (DTS-HD MA, 6 ch, 3472 Кбит/с, 48.0 KHz)
Субтитры: английские (*srt, *pgs), испанские, французские (*pgs)
Трейлер
Источник: The.Shed.2019.1080p.BluRay.REMUX.AVC.DTS-HD.MA.5.1-FGT
General
Unique ID : 185261300094730549411526366489156024476 (0x8B60074E52897FF7A2A7098BEC7C789C)
Complete name : The.Shed.2019.BluRay.REMUX.1080p.mkv
Format : Matroska
Format version : Version 4
File size : 16.7 GiB
Duration : 1 h 37 min
Overall bit rate mode : Variable
Overall bit rate : 24.7 Mb/s
Movie name : The.Shed.2019.1080p.BluRay.REMUX.AVC.DTS-HD.MA.5.1-FGT
Encoded date : UTC 2020-01-13 09:01:09
Writing application : mkvmerge v7.1.0 ('Good Love') 64bit built on Jul 27 2014 13:06:55
Writing library : libebml v1.3.0 + libmatroska v1.4.1

Video
ID : 1
Format : AVC
Format/Info : Advanced Video Codec
Format profile : High@L4.1
Format settings : CABAC / 4 Ref Frames
Format settings, CABAC : Yes
Format settings, Reference fra : 4 frames
Codec ID : V_MPEG4/ISO/AVC
Duration : 1 h 37 min
Bit rate mode : Variable
Bit rate : 20.8 Mb/s
Maximum bit rate : 36.0 Mb/s
Width : 1 920 pixels
Height : 1 080 pixels
Display aspect ratio : 16:9
Frame rate mode : Constant
Frame rate : 23.976 (24000/1001) FPS
Color space : YUV
Chroma subsampling : 4:2:0
Bit depth : 8 bits
Scan type : Progressive
Bits/(Pixel*Frame) : 0.418
Stream size : 14.1 GiB (84%)
Language : English
Default : Yes
Forced : No

Audio #1
ID : 2
Format : AC-3
Format/Info : Audio Coding 3
Commercial name : Dolby Digital
Codec ID : A_AC3
Duration : 1 h 37 min
Bit rate mode : Constant
Bit rate : 384 kb/s
Channel(s) : 6 channels
Channel layout : L R C LFE Ls Rs
Sampling rate : 48.0 kHz
Frame rate : 31.250 FPS (1536 SPF)
Compression mode : Lossy
Stream size : 267 MiB (2%)
Title : iTunes
Language : Russian
Service kind : Complete Main
Default : Yes
Forced : No

Audio #2
ID : 3
Format : DTS XLL
Format/Info : Digital Theater Systems
Commercial name : DTS-HD Master Audio
Codec ID : A_DTS
Duration : 1 h 37 min
Bit rate mode : Variable
Bit rate : 3 472 kb/s
Channel(s) : 6 channels
Channel layout : C L R Ls Rs LFE
Sampling rate : 48.0 kHz
Frame rate : 93.750 FPS (512 SPF)
Bit depth : 24 bits
Compression mode : Lossless
Stream size : 2.36 GiB (14%)
Language : English
Default : No
Forced : No

Text #1
ID : 4
Format : UTF-8
Codec ID : S_TEXT/UTF8
Codec ID/Info : UTF-8 Plain Text
Duration : 1 h 31 min
Bit rate : 42 b/s
Count of elements : 1043
Stream size : 28.7 KiB (0%)
Title : English-SRT
Language : English
Default : No
Forced : No

Text #2
ID : 5
Format : PGS
Muxing mode : zlib
Codec ID : S_HDMV/PGS
Codec ID/Info : Picture based subtitle format used on BDs/HD-DVDs
Duration : 1 h 36 min
Bit rate : 7 563 b/s
Count of elements : 2560
Stream size : 5.20 MiB (0%)
Title : English-PGS
Language : English
Default : No
Forced : No

Text #3
ID : 6
Format : PGS
Muxing mode : zlib
Codec ID : S_HDMV/PGS
Codec ID/Info : Picture based subtitle format used on BDs/HD-DVDs
Duration : 1 h 29 min
Bit rate : 6 611 b/s
Count of elements : 1948
Stream size : 4.25 MiB (0%)
Title : Spanish-PGS
Language : Spanish
Default : No
Forced : No

Text #4
ID : 7
Format : PGS
Muxing mode : zlib
Codec ID : S_HDMV/PGS
Codec ID/Info : Picture based subtitle format used on BDs/HD-DVDs
Duration : 1 h 29 min
Bit rate : 6 388 b/s
Count of elements : 2014
Stream size : 4.10 MiB (0%)
Title : French-PGS
Language : French
Default : No
Forced : No

Menu
00:00:00.000 : en:Chapter 01
00:16:02.169 : en:Chapter 02
00:30:46.469 : en:Chapter 03
00:45:17.214 : en:Chapter 04
00:49:56.034 : en:Chapter 05
01:07:58.074 : en:Chapter 06
01:15:03.540 : en:Chapter 07
01:33:27.977 : en:Chapter 08
Не забывайте говорить Спасибо. Не уходите с раздачи!   
Торрент: Зарегистрирован [13 янв 2020, 14:47]
Статус:
Проверен
 
.torrent скачан: 0 раз
Хэш: a131b8cd1a4aca6380a333531ae01e13fbc6907c
Размер: 16.74 ГБ (17 974 177 977 байт)
   Стать Автором раздачи
   
Цитата
  • Похожие торренты
    Ответы
    Просмотры
    Последнее сообщение

Вернуться в Зарубежное кино (HD Video)

Кто сейчас на конференции

Сейчас эту тему просматривают: нет зарегистрированных пользователей и гости: 1