Профессионал / Le professionnel (1981) BDRemux 1080p | D, P, P2, A

 Статистика раздачи 
Размер: 20.25 ГБ   |  Зарегистрирован: 13 янв 2020, 13:43   |   .torrent скачан: 404 раз
Сидеров: 25  [ 0 байт/сек ]     Личеров: 0  [ 0 байт/сек ]  
  
Аватара пользователя
Главный редактор
Главный редактор
 
Раздал: 90.01 ТБ
Скачал: 3.78 ТБ
Ратио: 24.248
Сообщения: 291225
Стаж: 9 лет 10 месяцев 28 дней
Откуда: Санкт-Петербург

Название: Профессионал
Оригинальное название: Le professionnel
Год выхода: 1981
Жанр: боевик, триллер, драма, криминал
Режиссер: Жорж Лотнер
В ролях: Жан-Поль Бельмондо, Жан Дезайи, Сирил Клер, Мари-Кристин Декуар, Элизабет Маргони, Жан-Луи Ришар, Мишель Бон, Бернар–Пьер Доннадье, Пьер Сентон, Жерар Дарьё, Сидики Бакаба, Робер Оссейн...


О фильме:
Убить президента африканской республики. Такое задание получил секретный агент Жослен Бомон. Внезапно политика изменилась, и французское правительство сдает героя африканским властям. Сбежав с каторги, волк-одиночка возвращается на родину с одной целью: довести задание до конца. А чернокожий лидер как раз приезжает во Францию.



Страна: Франция
Продолжительность: 01:47:58
Перевод: профессиональный (дублированный), профессиональный (многоголосый), профессиональный (двухголосый), авторский (одноголосый)


Качество: BDRemux 1080p
Видео: MPEG-4 AVC, 1920x1080 (16:9), 24.0 Mbps, 24.000 fps
Звук:
№ 1: AC3 | 2.0 | 48.0 kHz | 192 kbps - Многоголосый, закадровый к.ст им. Горького 1987
№ 2: AC3 | 2.0 | 48.0 kHz | 256 kbps - Дублированный Мосфильм 1990
№ 3: AC3 | 2.0 | 48.0 kHz | 192 kbps - Многоголосый, закадровый НТВ Н. Караченцов
№ 4: AC3 | 2.0 | 48.0 kHz | 192 kbps - Многоголосый, закадровый Неоклассика
№ 5: AC3 | 2.0 | 48.0 kHz | 192 kbps - Многоголосый, закадровый Тивионика
№ 6: AC3 | 2.0 | 48.0 kHz | 192 kbps - Многоголосый, закадровый ОРТ
№ 7: AC3 | 2.0 | 48.0 kHz | 192 kbps - Многоголосый, закадровый ТВЦ
№ 8: AC3 | 2.0 | 48.0 kHz | 192 kbps - Двухголосый, закадровый Екатеринбург Арт
№ 9: AC3 | 2.0 | 48.0 kHz | 224 kbps - Авторский Юрий Сербин
№ 10: AC3 | 2.0 | 48.0 kHz | 192 kbps - Авторский Леонид Володарский
№ 11: AC3 | 2.0 | 48.0 kHz | 192 kbps - Авторский Павел Прямостанов
№ 12: AC3 | 2.0 | 48.0 kHz | 256 kbps - Авторский Сергей Кузнецов
№ 13: AC3 | 2.0 | 48.0 kHz | 192 kbps - Двухголосый, закадровый 1+1 / Ukrainian
№ 14: AC3 | 2.0 | 48.0 kHz | 224 kbps - French
Субтитры: русские

General
Unique ID : 333278634111256833731517730830293172708 (0xFABB214FEEE9CFDA20380022EE1081E4)
Complete name : C:MKV-iP27Le.professionnel.1981.BDRemux.[iP27].mkv
Format : Matroska
Format version : Version 4
File size : 20.3 GiB
Duration : 1 h 47 min
Overall bit rate mode : Variable
Overall bit rate : 26.9 Mb/s
Movie name : Le professionnel (Профессионал) 1981 - [iP27]
Encoded date : UTC 2020-01-11 08:07:16
Writing application : mkvmerge v42.0.0 ('Overtime') 64-bit
Writing library : libebml v1.3.10 + libmatroska v1.5.2

Video
ID : 1
Format : AVC
Format/Info : Advanced Video Codec
Format profile : High@L4.1
Format settings : CABAC / 4 Ref Frames
Format settings, CABAC : Yes
Format settings, Reference frames : 4 frames
Codec ID : V_MPEG4/ISO/AVC
Duration : 1 h 47 min
Bit rate mode : Variable
Bit rate : 24.0 Mb/s
Maximum bit rate : 38.0 Mb/s
Width : 1 920 pixels
Height : 1 080 pixels
Display aspect ratio : 16:9
Frame rate mode : Constant
Frame rate : 24.000 FPS
Color space : YUV
Chroma subsampling : 4:2:0
Bit depth : 8 bits
Scan type : Progressive
Bits/(Pixel*Frame) : 0.482
Stream size : 18.1 GiB (89%)
Language : English
Default : Yes
Forced : No
Color range : Limited
Color primaries : BT.709
Transfer characteristics : BT.709
Matrix coefficients : BT.709

Audio #1
ID : 2
Format : AC-3
Format/Info : Audio Coding 3
Commercial name : Dolby Digital
Codec ID : A_AC3
Duration : 1 h 47 min
Bit rate mode : Constant
Bit rate : 192 kb/s
Channel(s) : 2 channels
Channel layout : L R
Sampling rate : 48.0 kHz
Frame rate : 31.250 FPS (1536 SPF)
Compression mode : Lossy
Stream size : 148 MiB (1%)
Title : MVO (к.ст им. Горького) 1987
Language : Russian
Service kind : Complete Main
Default : Yes
Forced : No

Audio #2
ID : 3
Format : AC-3
Format/Info : Audio Coding 3
Commercial name : Dolby Digital
Codec ID : A_AC3
Duration : 1 h 47 min
Bit rate mode : Constant
Bit rate : 256 kb/s
Channel(s) : 2 channels
Channel layout : L R
Sampling rate : 48.0 kHz
Frame rate : 31.250 FPS (1536 SPF)
Compression mode : Lossy
Stream size : 198 MiB (1%)
Title : Dub (Мосфильм) 1990
Language : Russian
Service kind : Complete Main
Default : No
Forced : No

Audio #3
ID : 4
Format : AC-3
Format/Info : Audio Coding 3
Commercial name : Dolby Digital
Codec ID : A_AC3
Duration : 1 h 47 min
Bit rate mode : Constant
Bit rate : 192 kb/s
Channel(s) : 2 channels
Channel layout : L R
Sampling rate : 48.0 kHz
Frame rate : 31.250 FPS (1536 SPF)
Compression mode : Lossy
Stream size : 148 MiB (1%)
Title : MVO (НТВ) Н. Караченцов
Language : Russian
Service kind : Complete Main
Default : No
Forced : No

Audio #4
ID : 5
Format : AC-3
Format/Info : Audio Coding 3
Commercial name : Dolby Digital
Codec ID : A_AC3
Duration : 1 h 47 min
Bit rate mode : Constant
Bit rate : 192 kb/s
Channel(s) : 2 channels
Channel layout : L R
Sampling rate : 48.0 kHz
Frame rate : 31.250 FPS (1536 SPF)
Compression mode : Lossy
Stream size : 148 MiB (1%)
Title : MVO (Неоклассика)
Language : Russian
Service kind : Complete Main
Default : No
Forced : No

Audio #5
ID : 6
Format : AC-3
Format/Info : Audio Coding 3
Commercial name : Dolby Digital
Codec ID : A_AC3
Duration : 1 h 47 min
Bit rate mode : Constant
Bit rate : 192 kb/s
Channel(s) : 2 channels
Channel layout : L R
Sampling rate : 48.0 kHz
Frame rate : 31.250 FPS (1536 SPF)
Compression mode : Lossy
Stream size : 148 MiB (1%)
Title : MVO (Тивионика)
Language : Russian
Service kind : Complete Main
Default : No
Forced : No

Audio #6
ID : 7
Format : AC-3
Format/Info : Audio Coding 3
Commercial name : Dolby Digital
Codec ID : A_AC3
Duration : 1 h 47 min
Bit rate mode : Constant
Bit rate : 192 kb/s
Channel(s) : 2 channels
Channel layout : L R
Sampling rate : 48.0 kHz
Frame rate : 31.250 FPS (1536 SPF)
Compression mode : Lossy
Stream size : 148 MiB (1%)
Title : MVO (ОРТ)
Language : Russian
Service kind : Complete Main
Default : No
Forced : No

Audio #7
ID : 8
Format : AC-3
Format/Info : Audio Coding 3
Commercial name : Dolby Digital
Codec ID : A_AC3
Duration : 1 h 47 min
Bit rate mode : Constant
Bit rate : 192 kb/s
Channel(s) : 2 channels
Channel layout : L R
Sampling rate : 48.0 kHz
Frame rate : 31.250 FPS (1536 SPF)
Compression mode : Lossy
Stream size : 148 MiB (1%)
Title : MVO (ТВЦ)
Language : Russian
Service kind : Complete Main
Default : No
Forced : No

Audio #8
ID : 9
Format : AC-3
Format/Info : Audio Coding 3
Commercial name : Dolby Digital
Codec ID : A_AC3
Duration : 1 h 47 min
Bit rate mode : Constant
Bit rate : 192 kb/s
Channel(s) : 2 channels
Channel layout : L R
Sampling rate : 48.0 kHz
Frame rate : 31.250 FPS (1536 SPF)
Compression mode : Lossy
Stream size : 148 MiB (1%)
Title : DVO (Екатеринбург Арт)
Language : Russian
Service kind : Complete Main
Default : No
Forced : No

Audio #9
ID : 10
Format : AC-3
Format/Info : Audio Coding 3
Commercial name : Dolby Digital
Codec ID : A_AC3
Duration : 1 h 47 min
Bit rate mode : Constant
Bit rate : 224 kb/s
Channel(s) : 2 channels
Channel layout : L R
Sampling rate : 48.0 kHz
Frame rate : 31.250 FPS (1536 SPF)
Compression mode : Lossy
Stream size : 173 MiB (1%)
Title : AVO (Ю. Сербин)
Language : Russian
Service kind : Complete Main
Default : No
Forced : No

Audio #10
ID : 11
Format : AC-3
Format/Info : Audio Coding 3
Commercial name : Dolby Digital
Codec ID : A_AC3
Duration : 1 h 47 min
Bit rate mode : Constant
Bit rate : 192 kb/s
Channel(s) : 2 channels
Channel layout : L R
Sampling rate : 48.0 kHz
Frame rate : 31.250 FPS (1536 SPF)
Compression mode : Lossy
Stream size : 148 MiB (1%)
Title : AVO (Л. Володарский)
Language : Russian
Service kind : Complete Main
Default : No
Forced : No

Audio #11
ID : 12
Format : AC-3
Format/Info : Audio Coding 3
Commercial name : Dolby Digital
Codec ID : A_AC3
Duration : 1 h 47 min
Bit rate mode : Constant
Bit rate : 192 kb/s
Channel(s) : 2 channels
Channel layout : L R
Sampling rate : 48.0 kHz
Frame rate : 31.250 FPS (1536 SPF)
Compression mode : Lossy
Stream size : 148 MiB (1%)
Title : AVO (П. Прямостанов)
Language : Russian
Service kind : Complete Main
Default : No
Forced : No

Audio #12
ID : 13
Format : AC-3
Format/Info : Audio Coding 3
Commercial name : Dolby Digital
Codec ID : A_AC3
Duration : 1 h 47 min
Bit rate mode : Constant
Bit rate : 256 kb/s
Channel(s) : 2 channels
Channel layout : L R
Sampling rate : 48.0 kHz
Frame rate : 31.250 FPS (1536 SPF)
Compression mode : Lossy
Stream size : 198 MiB (1%)
Title : AVO (С. Кузнецов)
Language : Russian
Service kind : Complete Main
Default : No
Forced : No

Audio #13
ID : 14
Format : AC-3
Format/Info : Audio Coding 3
Commercial name : Dolby Digital
Codec ID : A_AC3
Duration : 1 h 47 min
Bit rate mode : Constant
Bit rate : 192 kb/s
Channel(s) : 2 channels
Channel layout : L R
Sampling rate : 48.0 kHz
Frame rate : 31.250 FPS (1536 SPF)
Compression mode : Lossy
Stream size : 148 MiB (1%)
Title : DVO (1+1)
Language : Ukrainian
Service kind : Complete Main
Default : No
Forced : No

Audio #14
ID : 15
Format : AC-3
Format/Info : Audio Coding 3
Commercial name : Dolby Digital
Codec ID : A_AC3
Duration : 1 h 47 min
Bit rate mode : Constant
Bit rate : 224 kb/s
Channel(s) : 2 channels
Channel layout : L R
Sampling rate : 48.0 kHz
Frame rate : 31.250 FPS (1536 SPF)
Compression mode : Lossy
Stream size : 173 MiB (1%)
Title : Original
Language : French
Service kind : Complete Main
Default : No
Forced : No

Text
ID : 16
Format : UTF-8
Codec ID : S_TEXT/UTF8
Codec ID/Info : UTF-8 Plain Text
Duration : 1 h 45 min
Bit rate : 74 b/s
Count of elements : 933
Stream size : 57.1 KiB (0%)
Language : Russian
Default : Yes
Forced : No

Menu
00:00:00.000 : en:Chapter 01
00:12:39.958 : en:Chapter 02
00:28:55.250 : en:Chapter 03
00:41:54.625 : en:Chapter 04
00:54:46.417 : en:Chapter 05
01:06:59.000 : en:Chapter 06
01:21:16.667 : en:Chapter 07
01:33:52.500 : en:Chapter 08


За дорожку ТВЦ спасибо mister55555.
Текст читали: Вячеслав Баранов, Всеволод Кузнецов и Ольга Сирина
За русскую дорогу "Селена интернешнл" (ОРТ) спасибо Xguitarx. Работа со звуком - alex769.
Так как в начале звуковой дороги отсутствует 1 мин. (титры), то на это место сделана вставка их другого русского перевода (R5, "Neoclassica")
Текст читали: Сергей Малишевский, Андрей Ярославцев, Елена Соловьёва.
За звуковую дорожку Екатеринбург Арт спасибо Lafleur1994, оцифровка - RoxMarty, синхронизация - Taipan_70.
Текст читали: Александр Груздев, Ольга Кузнецова.
Не забывайте говорить Спасибо. Не уходите с раздачи!   
Торрент: Зарегистрирован [13 янв 2020, 13:43]
Статус:
Проверен
 
.torrent скачан: 404 раз
Хэш: b743a64032b91664a19dcebc72c05538d5cd9d30
Размер: 20.25 ГБ (21 744 990 820 байт)
   Стать Автором раздачи
   
Цитата
  • Похожие торренты
    Ответы
    Просмотры
    Последнее сообщение

Вернуться в Классика зарубежного кино (DVD, DVDRip, HD Video)

Кто сейчас на конференции

Сейчас эту тему просматривают: нет зарегистрированных пользователей и гости: 1