Блюз большого круга / Big Circle Blues / Huo bao da quan zi (Чоу Чун / Chow Cheung) [1992, Тайвань, боевик, LDRip] VO (Виктор Береговых) + Sub Eng

 Статистика раздачи 
Размер: 1.37 ГБ   |  Зарегистрирован: 13 янв 2020, 11:16   |   .torrent скачан: 0 раз
Сидеров: 0  [ 0 байт/сек ]     Личеров: 0  [ 0 байт/сек ]  
  
Аватара пользователя
Я на сайте
 
Раздал: 6.64 ТБ
Скачал: 597.93 ГБ
Ратио: 11.363
Сообщения: 252367
Стаж: 2 года 9 месяцев 27 дней

Блюз большого круга / Big Circle Blues / Huo bao da quan zi
Страна: Тайвань
Жанр: боевик
Год выпуска: 1992
Продолжительность: 01:27:38
Перевод: Одноголосый закадровый (Виктор Береговых)
Субтитры: английские, китайские (вшитые)
Режиссер: Чоу Чун / Chow Cheung
В ролях: Митико Нисиваки, Марк Чэн, Лун Сан, Гэри Сю, То Гвай Фа, Гам Сён Юк, Лам Юк Чи
Описание: Бандиты с материка грабят ювелирный в Гонконге и уезжают на Тайвань,в надежде сбыть награбленное. Местный авторитет Юн покупает украшения за 1 миллион долларов, однако вскоре грабители узнают,что реальная цена украшений 6 миллионов. Банда понимает,что их обманули и объявляет войну Юну. И в это же время на Тайвань приезжает офицер полиции Шоу Юнь (Митико Нисиваки). Ей поручено обезвредить банду...
Сэмпл: https://yadi.sk/i/kaq3XQ3geoPJyQ
Качество видео: LDRip
Формат видео: AVI
Видео: 704x336 (2.095), 29.970 fps, XviD, 2034 kbps avg, 0.287 bit/pixel
Аудио: AC3, 48.0 KHz, 192 Kbps, 2 channels
Код: Выделить всё
Format                           : AVI
Format/Info                      : Audio Video Interleave
File size                        : 1.37 GiB
Duration                         : 1h 27mn
Overall bit rate                 : 2 238 Kbps
Writing application              : VirtualDubMod 1.5.10.2 (build 2540/release)
Writing library                  : VirtualDubMod build 2540/release
Video
ID                               : 0
Format                           : MPEG-4 Visual
Format profile                   : Simple@L3
Format settings, BVOP            : Yes
Format settings, QPel            : No
Format settings, GMC             : No warppoints
Format settings, Matrix          : Custom
Codec ID                         : XVID
Codec ID/Hint                    : XviD
Duration                         : 1h 27mn
Bit rate                         : 2 034 Kbps
Width                            : 704 pixels
Height                           : 336 pixels
Display aspect ratio             : 2.095
Frame rate                       : 29.970 fps
Resolution                       : 24 bits
Colorimetry                      : 4:2:0
Scan type                        : Progressive
Bits/(Pixel*Frame)               : 0.287
Stream size                      : 1.25 GiB (91%)
Writing library                  : XviD 1.0.1 (UTC 2004-06-05)
Audio
ID                               : 1
Format                           : AC-3
Format/Info                      : Audio Coding 3
Codec ID                         : 2000
Duration                         : 1h 27mn
Bit rate mode                    : Constant
Bit rate                         : 192 Kbps
Channel(s)                       : 2 channels
Channel positions                : L R
Sampling rate                    : 48.0 KHz
Stream size                      : 120 MiB (9%)
Alignment                        : Split accross interleaves
Interleave, duration             : 33 ms (1.00 video frame)
Interleave, preload duration     : 500 ms
Language                         : Russian
Не забывайте говорить Спасибо. Не уходите с раздачи!   
Торрент: Зарегистрирован [13 янв 2020, 11:16]
Статус:
Проверен
 
.torrent скачан: 0 раз
Хэш: 07245e9f1ddd689d60c267dc5235904d7ceb85a5
Размер: 1.37 ГБ (1 471 045 632 байт)
   Стать Автором раздачи
   
Цитата
  • Похожие торренты
    Ответы
    Просмотры
    Последнее сообщение

Вернуться в Азиатское кино (Rips)

Кто сейчас на конференции

Сейчас эту тему просматривают: нет зарегистрированных пользователей и гости: 1