Ян-гуйфэй / Йокихи / Принцесса Ян Гуй Фэй / Yôkihi / Princess Yang Kwei Fei / Yokihi (Кендзи Мидзогути / Kenji Mizoguchi) [1955, Япония, Гонконг, Драма, мелодрама, история, HDRip] VO (В. Береговых) + Sub Rus, Eng + Original Jpn

 Статистика раздачи 
Размер: 1.46 ГБ   |  Зарегистрирован: 13 янв 2020, 11:54   |   .torrent скачан: 0 раз
Сидеров: 0  [ 0 байт/сек ]     Личеров: 0  [ 0 байт/сек ]  
  
Аватара пользователя
Я на сайте
 
Раздал: 6.64 ТБ
Скачал: 597.93 ГБ
Ратио: 11.363
Сообщения: 252367
Стаж: 2 года 9 месяцев 27 дней

Ян-гуйфэй / Йокихи / Принцесса Ян Гуй Фэй
Yôkihi / Princess Yang Kwei Fei / Yokihi

Страна: Япония, Гонконг
Студия: Daiei Studios, Shaw Brothers
Жанр: Драма, мелодрама, история
Год выпуска: 1955
Продолжительность: 01:31:11
Перевод: Одноголосый закадровый | Виктор Береговых
Субтитры: английские, русские
Оригинальная аудиодорожка: японский
Режиссер: Кендзи Мидзогути / Kenji Mizoguchi
В ролях:
Матико Кё, Масаюки Мори, Со Ямамура, Эйтаро Синдо, Эйтаро Одзава, Харуко Сугимура, Ёко Минамида, Бонтаро Миякэ, Тацуя Исигуро, Киндзо Син
Описание:
Китайский император Сюаньцзун пребывает в печали после смерти своей возлюбленной жены. Один из офицеров, приближенных к двору, пытается помочь императору и решает найти для него красивую девушку, которая своими песнями и танцами сможет отвлечь его господина от грустных мыслей. Офицер убежден, если девушка понравится императору, он непременно вознаградит его. Офицер мечтает занять самый высокий пост в правительстве страны. Такая девушка найдена, однако ее появление во дворце вызывает немало проблем.
| КиноПоиск | IMDb | Скачать сэмпл | Исходник BDRip (720p) |
Заказ озвучивания: vitolinform

Венецианский кинофестиваль, 1955 год
Номинации:
- Золотой лев
Качество видео: HDRip
Формат видео: AVI
Видео: 720x544 (4:3), 23.976 fps, XviD build 67 ~1901 kbps avg, 0.202 bit/pixel
Аудио 1: 48 kHz, AC3 Dolby Digital, 2/0 (L,R) ch, ~192 kbps | Одноголосый закадровый (Виктор Береговых)
Аудио 2: 48 kHz, AC3 Dolby Digital, 1/0 (C) ch, ~192 kbps | Японский
Формат субтитров: softsub (SRT)
Код: Выделить всё
Yokihi.1955.HDRip\Yokihi.1955.HDRip.avi
Формат                                   : AVI
Формат/Информация                        : Audio Video Interleave
Размер файла                             : 1,46 Гбайт
Продолжительность                        : 1 ч. 31 м.
Общий поток                              : 2300 Кбит/сек
Название фильма                          : Принцесса Ян Гуй Фэй / Yokihi (1955) HDRip
Режиссёр                                 : Кендзи Мидзогути / Kenji Mizoguchi
Жанр                                     : Драма, мелодрама, история
Программа кодирования                    : VirtualDubMod 1.5.10.2 (build 2542/release)
Формат оригинала/Имя                     : Художественный фильм
Авторское право                          : Япония, Гонконг, Daiei Studios, Shaw Brothers
Примечание                               : Rip by vitolinform
Видео
Идентификатор                            : 0
Формат                                   : MPEG-4 Visual
Профиль формата                          : Advanced Simple@L5
Настройки формата                        : BVOP2
Параметр BVOP формата                    : 2
Параметр QPel формата                    : Нет
Параметр GMC формата                     : Без точки перехода
Параметр матрицы формата                 : Default (MPEG)
Идентификатор кодека                     : XVID
Идентификатор кодека/Подсказка           : XviD
Продолжительность                        : 1 ч. 31 м.
Битрейт                                  : 1901 Кбит/сек
Ширина                                   : 720 пикселей
Высота                                   : 544 пикселя
Соотношение сторон                       : 4:3
Частота кадров                           : 23,976 (24000/1001) кадра/сек
Цветовое пространство                    : YUV
Субдискретизация насыщенности            : 4:2:0
Битовая глубина                          : 8 бит
Тип развёртки                            : Прогрессивная
Метод сжатия                             : С потерями
Бит/(Пиксели*Кадры)                      : 0.202
Размер потока                            : 1,21 Гбайт (83%)
Библиотека кодирования                   : XviD 67
Аудио #1
Идентификатор                            : 1
Формат                                   : AC-3
Формат/Информация                        : Audio Coding 3
Коммерческое название                    : Dolby Digital
Идентификатор кодека                     : 2000
Продолжительность                        : 1 ч. 31 м.
Вид битрейта                             : Постоянный
Битрейт                                  : 192 Кбит/сек
Каналы                                   : 2 канала
ChannelLayout                            : L R
Частота                                  : 48,0 КГц
Частота кадров                           : 31,250 кадров/сек (1536 SPF)
Битовая глубина                          : 16 бит
Метод сжатия                             : С потерями
Размер потока                            : 125 Мбайт (8%)
Выравнивание                             : Разделение по промежуткам
Продолжительность промежутка             : 42  мс. (1,00 видеокадр)
Время предзагрузки промежутка            : 500  мс.
Заголовок                                : Russian (VO Виктор Береговых)
ServiceKind/String                       : Complete Main
Аудио #2
Идентификатор                            : 2
Формат                                   : AC-3
Формат/Информация                        : Audio Coding 3
Коммерческое название                    : Dolby Digital
Идентификатор кодека                     : 2000
Продолжительность                        : 1 ч. 31 м.
Вид битрейта                             : Постоянный
Битрейт                                  : 192 Кбит/сек
Каналы                                   : 1 канал
ChannelLayout                            : C
Частота                                  : 48,0 КГц
Частота кадров                           : 31,250 кадров/сек (1536 SPF)
Битовая глубина                          : 16 бит
Метод сжатия                             : С потерями
Размер потока                            : 125 Мбайт (8%)
Выравнивание                             : Разделение по промежуткам
Продолжительность промежутка             : 42  мс. (1,00 видеокадр)
Время предзагрузки промежутка            : 500  мс.
Заголовок                                : Japanese
ServiceKind/String                       : Complete Main
Не забывайте говорить Спасибо. Не уходите с раздачи!   
Торрент: Зарегистрирован [13 янв 2020, 11:54]
Статус:
Проверен
 
.torrent скачан: 0 раз
Хэш: ccca2e2a5ae64b28197c6f1f183f29cf49dc995d
Размер: 1.46 ГБ (1 572 944 287 байт)
   Стать Автором раздачи
   
Цитата
  • Похожие торренты
    Ответы
    Просмотры
    Последнее сообщение

Вернуться в Азиатское кино (Rips)

Кто сейчас на конференции

Сейчас эту тему просматривают: нет зарегистрированных пользователей и гости: 1