Замена 2: Последний урок / The Substitute 2: School's Out (1998) BDRip 1080p | P, A

 Статистика раздачи 
Размер: 8.01 ГБ   |  Зарегистрирован: 13 дек 2019, 18:16   |   .torrent скачан: 2 раз
Сидеров: 8  [ 0 байт/сек ]     Личеров: 0  [ 0 байт/сек ]  
  
Аватара пользователя
 
Раздал: 6.64 ТБ
Скачал: 597.93 ГБ
Ратио: 11.363
Сообщения: 256858
Стаж: 2 года 10 месяцев 27 дней

Название: Замена 2: Последний урок
Оригинальное название: The Substitute 2: School's Out
Год выхода: 1998

Страна: США
Студия: Dinamo Entertainment, Gun for Hire Films, Live Film & Mediaworks Inc.
Продолжительность: 01:29:48
Жанр: боевик, триллер, криминал

Режиссер: Стивен Перл
В ролях: Трит Уильямс, Б.Д. Вонг, Эдоардо Баллерини, Кристофер Казинс, Чак Джеффрис, Сьюзэн Мэй Прэтт, Майкл Мишель, Оуэн Стейдел, Ларри Джиллиард мл., Камилль Гастон, Юджин Бирд, ...

Перевод:
- Профессиональный (многоголосый, закадровый) ?
- Авторский (одноголосый, закадровый) Живов Юрий Викторович
- Авторский (одноголосый, закадровый) Сербин Юрий Владимирович

О фильме: Лейтенант морской пехоты Карл Томассон прибывает в Нью — Йорк после того, как его брата — учителя среди белого дня жестоко убивают на улице Бруклина.
Подозрение падает на учеников покойного, организовавших прибыльный бизнес по угону автомобилей. В поисках убийц Томассон под фальшивым именем устаивается в школу преподавателем. Для членов преступной шайки прозвенел последний звонок…



Кодек: x264
Качество: BDRip 1080p by WiSDOM
Видео: 1920x1080, 10700 kbps, 23,976 fps
Аудио #1: AC-3, 2 ch, 192 kbps (Rus) - MVO
Аудио #2: AC-3, 2 ch, 192 kbps (Rus) - AVO Живов Юрий Викторович
Аудио #3: AC-3, 2 ch, 192 kbps (Rus) - AVO Сербин Юрий Владимирович
Аудио #4: DTS, 6 ch, 1509 kbps (Eng)
Субтитры: английские

Общее
Уникальный идентификатор : 191286198156657332248485100611064120066 (0x8FE861B6F243A536A6A33F57742D4302)
Полное имя : Замена 2 Последний урок The Substitute 2 School's Out 1998 BDRip 1080p.mkv
Формат : Matroska
Версия формата : Version 2
Размер файла : 8,01 Гбайт
Продолжительность : 1 ч. 29 м.
Общий поток : 12,8 Мбит/сек
Дата кодирования : UTC 2019-12-13 14:52:25
Программа кодирования : mkvmerge v4.0.0 ('The Stars were mine') сборка от Jun 6 2010 16:18:42
Библиотека кодирования : libebml v1.0.0 + libmatroska v1.0.0

Видео
Идентификатор : 1
Формат : AVC
Формат/Информация : Advanced Video Codec
Профиль формата : High@L4.1
Параметр CABAC формата : Да
Параметр ReFrames формата : 4 кадра
Параметр GOP формата : M=1, N=2
Идентификатор кодека : V_MPEG4/ISO/AVC
Продолжительность : 1 ч. 29 м.
Битрейт : 10,7 Мбит/сек
Ширина : 1920 пикселей
Высота : 1080 пикселей
Соотношение сторон : 16:9
Режим частоты кадров : Постоянный
Частота кадров : 23,976 (24000/1001) кадра/сек
Цветовое пространство : YUV
Субдискретизация насыщенности : 4:2:0
Битовая глубина : 8 бит
Тип развёртки : Прогрессивная
Бит/(Пиксели*Кадры) : 0.215
Размер потока : 6,54 Гбайт (82%)
Библиотека кодирования : x264 core 157 r2969 d4099dd
Настройки программы : cabac=1 / ref=4 / deblock=1:0:0 / analyse=0x3:0x113 / me=umh / subme=8 / psy=1 / psy_rd=1.00:0.00 / mixed_ref=1 / me_range=16 / chroma_me=1 / trellis=2 / 8x8dct=1 / cqm=0 / deadzone=21,11 / fast_pskip=0 / chroma_qp_offset=-2 / threads=24 / lookahead_threads=4 / sliced_threads=0 / nr=0 / decimate=1 / interlaced=0 / bluray_compat=0 / constrained_intra=0 / bframes=3 / b_pyramid=2 / b_adapt=1 / b_bias=0 / direct=1 / weightb=1 / open_gop=0 / weightp=2 / keyint=250 / keyint_min=23 / scenecut=40 / intra_refresh=0 / rc_lookahead=50 / rc=2pass / mbtree=1 / bitrate=10679 / ratetol=1.0 / qcomp=0.60 / qpmin=0 / qpmax=69 / qpstep=4 / cplxblur=20.0 / qblur=0.5 / ip_ratio=1.40 / aq=1:1.00
Язык : English
Default : Нет
Forced : Нет

Аудио #1
Идентификатор : 2
Формат : AC-3
Формат/Информация : Audio Coding 3
Расширение режима : CM (complete main)
Параметр Endianness формата : Big
Идентификатор кодека : A_AC3
Продолжительность : 1 ч. 29 м.
Вид битрейта : Постоянный
Битрейт : 192 Кбит/сек
Каналы : 2 канала
Расположение каналов : Front: L R
Частота : 48,0 КГц
Частота кадров : 31,250 кадров/сек (1536 spf)
Метод сжатия : С потерями
Размер потока : 123 Мбайт (2%)
Заголовок : MVO
Язык : Russian
Default : Нет
Forced : Нет

Аудио #2
Идентификатор : 3
Формат : AC-3
Формат/Информация : Audio Coding 3
Расширение режима : CM (complete main)
Параметр Endianness формата : Big
Идентификатор кодека : A_AC3
Продолжительность : 1 ч. 29 м.
Вид битрейта : Постоянный
Битрейт : 192 Кбит/сек
Каналы : 2 канала
Расположение каналов : Front: L R
Частота : 48,0 КГц
Частота кадров : 31,250 кадров/сек (1536 spf)
Метод сжатия : С потерями
Размер потока : 123 Мбайт (2%)
Заголовок : AVO Живов Юрий Викторович
Язык : Russian
Default : Нет
Forced : Нет

Аудио #3
Идентификатор : 4
Формат : AC-3
Формат/Информация : Audio Coding 3
Расширение режима : CM (complete main)
Параметр Endianness формата : Big
Идентификатор кодека : A_AC3
Продолжительность : 1 ч. 29 м.
Вид битрейта : Постоянный
Битрейт : 192 Кбит/сек
Каналы : 2 канала
Расположение каналов : Front: L R
Частота : 48,0 КГц
Частота кадров : 31,250 кадров/сек (1536 spf)
Метод сжатия : С потерями
Размер потока : 123 Мбайт (2%)
Заголовок : AVO Сербин Юрий Владимирович
Язык : Russian
Default : Нет
Forced : Нет

Аудио #4
Идентификатор : 5
Формат : DTS
Формат/Информация : Digital Theater Systems
Режим : 16
Параметр Endianness формата : Big
Идентификатор кодека : A_DTS
Продолжительность : 1 ч. 29 м.
Вид битрейта : Постоянный
Битрейт : 1509 Кбит/сек
Каналы : 6 каналов
Расположение каналов : Front: L C R, Side: L R, LFE
Частота : 48,0 КГц
Частота кадров : 93,750 кадра/сек (512 spf)
Битовая глубина : 24 бит
Метод сжатия : С потерями
Задержка видео : 11 мс.
Размер потока : 969 Мбайт (12%)
Язык : English
Default : Нет
Forced : Нет

Текст
Идентификатор : 6
Формат : UTF-8
Идентификатор кодека : S_TEXT/UTF8
Идентификатор кодека/Информация : UTF-8 Plain Text
Язык : English
Default : Нет
Forced : Нет

Меню
00:00:00.000 : en:00:00:00.000
00:09:00.540 : en:00:09:00.540
00:14:45.885 : en:00:14:45.885
00:24:43.482 : en:00:24:43.482
00:28:17.696 : en:00:28:17.696
00:36:51.209 : en:00:36:51.209
00:47:17.835 : en:00:47:17.835
00:52:29.146 : en:00:52:29.146
00:59:48.585 : en:00:59:48.585
01:07:52.068 : en:01:07:52.068
01:14:21.457 : en:01:14:21.457
01:25:05.100 : en:01:25:05.100


Не забывайте говорить Спасибо. Не уходите с раздачи!   
Торрент: Зарегистрирован [13 дек 2019, 18:16]
Статус:
Проверен
 
.torrent скачан: 2 раз
Хэш: d33d792c603c048c873cfb358db7a8a7e810995c
Размер: 8.01 ГБ (8 599 294 537 байт)
   Стать Автором раздачи
   
Цитата
  • Похожие торренты
    Ответы
    Просмотры
    Последнее сообщение

Вернуться в Зарубежное кино (HD Video)

Кто сейчас на конференции

Сейчас эту тему просматривают: нет зарегистрированных пользователей и гости: 1