12 обезьян / Двенадцать обезьян / 12 Monkeys / Twelve Monkeys (Терри Гиллиам / Terry Gilliam) [1995, США, фантастика, триллер, BDRemux 1080p] [UK] [Arrow Films] Dub + 2x MVO + 2x DVO + 4x AVO + VO + Sub Rus, Eng + Original Eng

 Статистика раздачи 
Размер: 49.71 ГБ   |  Зарегистрирован: 05 ноя 2018, 12:50   |   .torrent скачан: 0 раз
Сидеров: 0  [ 0 байт/сек ]     Личеров: 0  [ 0 байт/сек ]  
  
Аватара пользователя
Главный редактор
Главный редактор
Я на сайте
 
Раздал: 90.01 ТБ
Скачал: 3.78 ТБ
Ратио: 24.248
Сообщения: 285786
Стаж: 9 лет 3 месяца 28 дней
Откуда: Санкт-Петербург

12 обезьян / 12 Monkeys
Страна: США
Студия: Universal Pictures, Atlas Entertainment, Classico, Twelve Monkeys Productions
Жанр: фантастика, триллер, детектив
Год выпуска: 1995
Продолжительность: 02:09:32
Перевод 1: профессиональный (дублированный)
Перевод 2: профессиональный (многоголосый закадровый) x2
Перевод 3: профессиональный (двухголосый закадровый) x2
Перевод 4: авторский (одноголосый закадровый) x4
Перевод 5: одноголосый закадровый
Субтитры: русские (Netflix, Неизвестный #1, Неизвестный #2, Stevvie), английские
Оригинальная аудиодорожка: английский
Режиссер: Терри Гиллиам / Terry Gilliam
В ролях: Брюс Уиллис (James Cole), Мэделин Стоу (Kathryn Railly), Брэд Питт (Jeffrey Goines), Кристофер Пламмер (Dr. Goines), Дэвид Морс (Dr. Peters), Джозеф Мелито (Young Cole), Джон Седа (Jose), Майкл Чэнс (Scarface), Вернон Кэмпбелл (Tiny), Х. Майкл Уоллс (Botanist)
Описание: 2035 год… Чудовищный, неизлечимый вирус уничтожил пять миллиардов человек, то есть 99% населения Земли. Оставшиеся в живых люди вынуждены обитать под землей.
Уголовник Джеймс Коул добровольно отправляется в опасное путешествие на машине времени. Он должен попасть в прошлое, чтобы помочь ученым найти источник возникновения этого ужасного вируса и раскрыть загадку таинственных «Двенадцати обезьян»…
Тип релиза: BDRemux 1080p
Контейнер: MKV (Сэмпл)
Видео: MPEG-4 AVC / 1920x1080 / 26981 kbps / 23.976 fps / 1.85:1
Аудио 1: Russian E-AC3 5.1 / 640 kbps / 48 kHz / Dub (Netflix)
Аудио 2: Russian AC3 2.0 / 192 kbps / 48 kHz / DVO (Премьер Видео Фильм)
Аудио 3: Russian AC3 2.0 / 192 kbps / 48 kHz / MVO (СТС / Шестой Канал)
Аудио 4: Russian AC3 2.0 / 192 kbps / 48 kHz / MVO (ОРТ / Первый Канал / ТВ3)
Аудио 5: Russian DTS-HD Master Audio 5.1 / 4172 kbps / 48 kHz / 24 bit / DVO (П.Гланц и И.Королёва) ★★★
Аудио 6: Russian DTS-HD Master Audio 5.1 / 4182 kbps / 48 kHz / 24 bit / AVO (А.Гаврилов) ★★★
Аудио 7: Russian DTS-HD Master Audio 5.1 / 4141 kbps / 48 kHz / 24 bit / AVO (Ю.Живов) ★★★
Аудио 8: Russian DTS-HD Master Audio 5.1 / 4139 kbps / 48 kHz / 24 bit / VO (М.Чадов) ★★★
Аудио 9: Russian AC3 2.0 / 192 kbps / 48 kHz / AVO (С.Визгунов)
Аудио 10: Russian AC3 2.0 / 384 kbps / 48 kHz / AVO (П.Карцев)
Аудио 11: Ukrainian DTS-HD Master Audio 5.1 / 4166 kbps / 48 kHz / 24 bit / MVO (Новий канал) ★★★
Аудио 12: English DTS-HD Master Audio 5.1 / 3725 kbps / 48 kHz / 24 bit ★★★
Аудио 13: English FLAC 2.0 / 1326 kbps / 48 kHz / 24 bit
Аудио 14: English AC3 2.0 / 320 kbps / 48 kHz / Commentary by Terry Gilliam and Charles Roven
Формат субтитров: softsub (SRT)
Навигация по главам: есть (подписаны)
★★★ : DTS Core 5.1 / 1509 kbps / 48 kHz / 24 bit[/spoiler]

Код: Выделить всё
Общее
Уникальный идентификатор                 : 197415720584269758737760170601325440076 (0x9484E280B82D9D1131162E35E656AC4C)
Полное имя                               : Twelve.Monkeys.1995.Arrow.Films.BDRemux.1080p-rutracker.mkv
Формат                                   : Matroska
Версия формата                           : Version 4
Размер файла                             : 49,7 Гбайт
Продолжительность                        : 2 ч. 9 м.
Режим общего битрейта                    : Переменный
Общий поток                              : 54,9 Мбит/сек
Название фильма                          : Twelve Monkeys / 1995 / Arrow Films
Дата кодирования                         : UTC 2019-12-07 17:39:31
Программа кодирования                    : mkvmerge v40.0.0 ('Old Town Road + Pony') 64-bit
Библиотека кодирования                   : libebml v1.3.9 + libmatroska v1.5.2
Обложка                                  : Yes
Attachments                              : cover.jpg
Видео
Идентификатор                            : 1
Формат                                   : AVC
Формат/Информация                        : Advanced Video Codec
Профиль формата                          : High@L4.1
Настройки формата                        : CABAC / 3 Ref Frames
Параметр CABAC формата                   : Да
Параметр RefFrames формата               : 3 кадра
Идентификатор кодека                     : V_MPEG4/ISO/AVC
Продолжительность                        : 2 ч. 9 м.
Вид битрейта                             : Переменный
Битрейт                                  : 27,0 Мбит/сек
Максимальный битрейт                     : 38,0 Мбит/сек
Ширина                                   : 1920 пикселей
Высота                                   : 1080 пикселей
Соотношение сторон                       : 16:9
Режим частоты кадров                     : Постоянный
Частота кадров                           : 23,976 (24000/1001) кадра/сек
Цветовое пространство                    : YUV
Субдискретизация насыщенности            : 4:2:0
Битовая глубина                          : 8 бит
Тип развёртки                            : Прогрессивная
Бит/(Пиксели*Кадры)                      : 0.543
Размер потока                            : 24,4 Гбайт (49%)
Заголовок                                : Twelve Monkeys / MPEG-4 AVC @ 26981 kbps
Библиотека кодирования                   : x264 core 155 r2901 7d0ff22
Настройки программы                      : cabac=1 / ref=4 / deblock=1:-1:-1 / analyse=0x3:0x133 / me=umh / subme=10 / psy=1 / psy_rd=1.00:0.15 / mixed_ref=1 / me_range=24 / chroma_me=1 / trellis=2 / 8x8dct=1 / cqm=0 / deadzone=21,11 / fast_pskip=1 / chroma_qp_offset=-6 / threads=12 / lookahead_threads=1 / sliced_threads=0 / slices=4 / nr=0 / decimate=1 / interlaced=0 / bluray_compat=1 / stitchable=1 / constrained_intra=0 / bframes=3 / b_pyramid=1 / b_adapt=2 / b_bias=0 / direct=3 / weightb=1 / open_gop=1 / weightp=1 / keyint=24 / keyint_min=1 / scenecut=40 / intra_refresh=0 / rc_lookahead=24 / rc=2pass / mbtree=1 / bitrate=27000 / ratetol=0.1 / qcomp=0.60 / qpmin=0 / qpmax=69 / qpstep=4 / cplxblur=20.0 / qblur=0.5 / vbv_maxrate=38000 / vbv_bufsize=30000 / nal_hrd=vbr / filler=0 / ip_ratio=1.40 / aq=1:1.00
Язык                                     : English
Default                                  : Да
Forced                                   : Нет
Цветовой диапазон                        : Limited
Основные цвета                           : BT.709
Характеристики трансфера                 : BT.709
Коэффициенты матрицы                     : BT.709
Аудио #1
Идентификатор                            : 2
Формат                                   : E-AC-3
Формат/Информация                        : Enhanced AC-3
Коммерческое название                    : Dolby Digital Plus
Идентификатор кодека                     : A_EAC3
Продолжительность                        : 2 ч. 9 м.
Вид битрейта                             : Постоянный
Битрейт                                  : 640 Кбит/сек
Каналы                                   : 6 каналов
ChannelLayout                            : L R C LFE Ls Rs
Частота                                  : 48,0 КГц
Частота кадров                           : 31,250 кадров/сек (1536 SPF)
Метод сжатия                             : С потерями
Размер потока                            : 592 Мбайт (1%)
Заголовок                                : Dub Netflix / E-AC3 5.1 @ 640 kbps
Язык                                     : Russian
ServiceKind/String                       : Complete Main
Default                                  : Да
Forced                                   : Нет
Аудио #2
Идентификатор                            : 3
Формат                                   : AC-3
Формат/Информация                        : Audio Coding 3
Коммерческое название                    : Dolby Digital
Идентификатор кодека                     : A_AC3
Продолжительность                        : 2 ч. 9 м.
Вид битрейта                             : Постоянный
Битрейт                                  : 192 Кбит/сек
Каналы                                   : 2 канала
ChannelLayout                            : L R
Частота                                  : 48,0 КГц
Частота кадров                           : 31,250 кадров/сек (1536 SPF)
Битовая глубина                          : 16 бит
Метод сжатия                             : С потерями
Размер потока                            : 178 Мбайт (0%)
Заголовок                                : DVO Премьер Видео Фильм / AC3 2.0 @ 192 kbps
Язык                                     : Russian
ServiceKind/String                       : Complete Main
Default                                  : Нет
Forced                                   : Нет
Аудио #3
Идентификатор                            : 4
Формат                                   : AC-3
Формат/Информация                        : Audio Coding 3
Коммерческое название                    : Dolby Digital
Идентификатор кодека                     : A_AC3
Продолжительность                        : 2 ч. 9 м.
Вид битрейта                             : Постоянный
Битрейт                                  : 192 Кбит/сек
Каналы                                   : 2 канала
ChannelLayout                            : L R
Частота                                  : 48,0 КГц
Частота кадров                           : 31,250 кадров/сек (1536 SPF)
Битовая глубина                          : 16 бит
Метод сжатия                             : С потерями
Размер потока                            : 178 Мбайт (0%)
Заголовок                                : MVO СТС / AC3 2.0 @ 192 kbps
Язык                                     : Russian
ServiceKind/String                       : Complete Main
Default                                  : Нет
Forced                                   : Нет
Аудио #4
Идентификатор                            : 5
Формат                                   : AC-3
Формат/Информация                        : Audio Coding 3
Коммерческое название                    : Dolby Digital
Идентификатор кодека                     : A_AC3
Продолжительность                        : 2 ч. 9 м.
Вид битрейта                             : Постоянный
Битрейт                                  : 192 Кбит/сек
Каналы                                   : 2 канала
ChannelLayout                            : L R
Частота                                  : 48,0 КГц
Частота кадров                           : 31,250 кадров/сек (1536 SPF)
Битовая глубина                          : 16 бит
Метод сжатия                             : С потерями
Размер потока                            : 178 Мбайт (0%)
Заголовок                                : MVO ОРТ / AC3 2.0 @ 192 kbps
Язык                                     : Russian
ServiceKind/String                       : Complete Main
Default                                  : Нет
Forced                                   : Нет
Аудио #5
Идентификатор                            : 6
Формат                                   : DTS XLL
Формат/Информация                        : Digital Theater Systems
Коммерческое название                    : DTS-HD Master Audio
Идентификатор кодека                     : A_DTS
Продолжительность                        : 2 ч. 9 м.
Вид битрейта                             : Переменный
Битрейт                                  : 4172 Кбит/сек
Каналы                                   : 6 каналов
ChannelLayout                            : C L R Ls Rs LFE
Частота                                  : 48,0 КГц
Частота кадров                           : 93,750 кадра/сек (512 SPF)
Битовая глубина                          : 24 бит
Метод сжатия                             : Без потерь
Размер потока                            : 3,77 Гбайт (8%)
Заголовок                                : DVO Гланц и Королёва / DTS-HD MA 5.1 @ 4172 kbps
Язык                                     : Russian
Default                                  : Нет
Forced                                   : Нет
Аудио #6
Идентификатор                            : 7
Формат                                   : DTS XLL
Формат/Информация                        : Digital Theater Systems
Коммерческое название                    : DTS-HD Master Audio
Идентификатор кодека                     : A_DTS
Продолжительность                        : 2 ч. 9 м.
Вид битрейта                             : Переменный
Битрейт                                  : 4182 Кбит/сек
Каналы                                   : 6 каналов
ChannelLayout                            : C L R Ls Rs LFE
Частота                                  : 48,0 КГц
Частота кадров                           : 93,750 кадра/сек (512 SPF)
Битовая глубина                          : 24 бит
Метод сжатия                             : Без потерь
Размер потока                            : 3,78 Гбайт (8%)
Заголовок                                : AVO Гаврилов / DTS-HD MA 5.1 @ 4182 kbps
Язык                                     : Russian
Default                                  : Нет
Forced                                   : Нет
Аудио #7
Идентификатор                            : 8
Формат                                   : DTS XLL
Формат/Информация                        : Digital Theater Systems
Коммерческое название                    : DTS-HD Master Audio
Идентификатор кодека                     : A_DTS
Продолжительность                        : 2 ч. 9 м.
Вид битрейта                             : Переменный
Битрейт                                  : 4141 Кбит/сек
Каналы                                   : 6 каналов
ChannelLayout                            : C L R Ls Rs LFE
Частота                                  : 48,0 КГц
Частота кадров                           : 93,750 кадра/сек (512 SPF)
Битовая глубина                          : 24 бит
Метод сжатия                             : Без потерь
Размер потока                            : 3,74 Гбайт (8%)
Заголовок                                : AVO Живов / DTS-HD MA 5.1 @ 4141 kbps
Язык                                     : Russian
Default                                  : Нет
Forced                                   : Нет
Аудио #8
Идентификатор                            : 9
Формат                                   : DTS XLL
Формат/Информация                        : Digital Theater Systems
Коммерческое название                    : DTS-HD Master Audio
Идентификатор кодека                     : A_DTS
Продолжительность                        : 2 ч. 9 м.
Вид битрейта                             : Переменный
Битрейт                                  : 4139 Кбит/сек
Каналы                                   : 6 каналов
ChannelLayout                            : C L R Ls Rs LFE
Частота                                  : 48,0 КГц
Частота кадров                           : 93,750 кадра/сек (512 SPF)
Битовая глубина                          : 24 бит
Метод сжатия                             : Без потерь
Размер потока                            : 3,74 Гбайт (8%)
Заголовок                                : VO Чадов / DTS-HD MA 5.1 @ 4139 kbps
Язык                                     : Russian
Default                                  : Нет
Forced                                   : Нет
Аудио #9
Идентификатор                            : 10
Формат                                   : AC-3
Формат/Информация                        : Audio Coding 3
Коммерческое название                    : Dolby Digital
Идентификатор кодека                     : A_AC3
Продолжительность                        : 2 ч. 9 м.
Вид битрейта                             : Постоянный
Битрейт                                  : 192 Кбит/сек
Каналы                                   : 2 канала
ChannelLayout                            : L R
Частота                                  : 48,0 КГц
Частота кадров                           : 31,250 кадров/сек (1536 SPF)
Битовая глубина                          : 16 бит
Метод сжатия                             : С потерями
Размер потока                            : 178 Мбайт (0%)
Заголовок                                : AVO Визгунов / AC3 2.0 @ 192 kbps
Язык                                     : Russian
ServiceKind/String                       : Complete Main
Default                                  : Нет
Forced                                   : Нет
Аудио #10
Идентификатор                            : 11
Формат                                   : AC-3
Формат/Информация                        : Audio Coding 3
Коммерческое название                    : Dolby Digital
Идентификатор кодека                     : A_AC3
Продолжительность                        : 2 ч. 9 м.
Вид битрейта                             : Постоянный
Битрейт                                  : 384 Кбит/сек
Каналы                                   : 2 канала
ChannelLayout                            : L R
Частота                                  : 48,0 КГц
Частота кадров                           : 31,250 кадров/сек (1536 SPF)
Битовая глубина                          : 16 бит
Метод сжатия                             : С потерями
Размер потока                            : 356 Мбайт (1%)
Заголовок                                : AVO Карцев / AC3 2.0 @ 384 kbps
Язык                                     : Russian
ServiceKind/String                       : Complete Main
Default                                  : Нет
Forced                                   : Нет
Аудио #11
Идентификатор                            : 12
Формат                                   : DTS XLL
Формат/Информация                        : Digital Theater Systems
Коммерческое название                    : DTS-HD Master Audio
Идентификатор кодека                     : A_DTS
Продолжительность                        : 2 ч. 9 м.
Вид битрейта                             : Переменный
Битрейт                                  : 4166 Кбит/сек
Каналы                                   : 6 каналов
ChannelLayout                            : C L R Ls Rs LFE
Частота                                  : 48,0 КГц
Частота кадров                           : 93,750 кадра/сек (512 SPF)
Битовая глубина                          : 24 бит
Метод сжатия                             : Без потерь
Размер потока                            : 3,77 Гбайт (8%)
Заголовок                                : DTS-HD MA 5.1 @ 4166 kbps
Язык                                     : Ukrainian
Default                                  : Нет
Forced                                   : Нет
Аудио #12
Идентификатор                            : 13
Формат                                   : DTS XLL
Формат/Информация                        : Digital Theater Systems
Коммерческое название                    : DTS-HD Master Audio
Идентификатор кодека                     : A_DTS
Продолжительность                        : 2 ч. 9 м.
Вид битрейта                             : Переменный
Битрейт                                  : 3725 Кбит/сек
Каналы                                   : 6 каналов
ChannelLayout                            : C L R Ls Rs LFE
Частота                                  : 48,0 КГц
Частота кадров                           : 93,750 кадра/сек (512 SPF)
Битовая глубина                          : 24 бит
Метод сжатия                             : Без потерь
Размер потока                            : 3,37 Гбайт (7%)
Заголовок                                : DTS-HD MA 5.1 @ 3725 kbps
Язык                                     : English
Default                                  : Нет
Forced                                   : Нет
Аудио #13
Идентификатор                            : 14
Формат                                   : FLAC
Формат/Информация                        : Free Lossless Audio Codec
Идентификатор кодека                     : A_FLAC
Продолжительность                        : 2 ч. 9 м.
Вид битрейта                             : Переменный
Битрейт                                  : 1326 Кбит/сек
Каналы                                   : 2 канала
ChannelLayout                            : L R
Частота                                  : 48,0 КГц
Частота кадров                           : 11,719 кадров/сек (4096 SPF)
Битовая глубина                          : 24 бит
Метод сжатия                             : Без потерь
Размер потока                            : 1,20 Гбайт (2%)
Заголовок                                : FLAC 2.0 @ 1326 kbps
Библиотека кодирования                   : libFLAC 1.2.1 (UTC 2007-09-17)
Язык                                     : English
Default                                  : Нет
Forced                                   : Нет
Аудио #14
Идентификатор                            : 15
Формат                                   : AC-3
Формат/Информация                        : Audio Coding 3
Коммерческое название                    : Dolby Digital
Идентификатор кодека                     : A_AC3
Продолжительность                        : 2 ч. 9 м.
Вид битрейта                             : Постоянный
Битрейт                                  : 320 Кбит/сек
Каналы                                   : 2 канала
ChannelLayout                            : L R
Частота                                  : 48,0 КГц
Частота кадров                           : 31,250 кадров/сек (1536 SPF)
Битовая глубина                          : 16 бит
Метод сжатия                             : С потерями
Размер потока                            : 296 Мбайт (1%)
Заголовок                                : Commentary by Terry Gilliam and producer Charles Roven
Язык                                     : English
ServiceKind/String                       : Complete Main
Default                                  : Нет
Forced                                   : Нет
Текст #1
Идентификатор                            : 16
Формат                                   : UTF-8
Идентификатор кодека                     : S_TEXT/UTF8
Идентификатор кодека/Информация          : UTF-8 Plain Text
Продолжительность                        : 2 ч. 8 м.
Битрейт                                  : 118 бит/сек
ElementCount                             : 1627
Размер потока                            : 112 Кбайт (0%)
Заголовок                                : Netflix
Язык                                     : Russian
Default                                  : Нет
Forced                                   : Нет
Текст #2
Идентификатор                            : 17
Формат                                   : UTF-8
Идентификатор кодека                     : S_TEXT/UTF8
Идентификатор кодека/Информация          : UTF-8 Plain Text
Продолжительность                        : 2 ч. 7 м.
Битрейт                                  : 104 бит/сек
ElementCount                             : 1578
Размер потока                            : 96,9 Кбайт (0%)
Заголовок                                : Неизвестный #1
Язык                                     : Russian
Default                                  : Нет
Forced                                   : Нет
Текст #3
Идентификатор                            : 18
Формат                                   : UTF-8
Идентификатор кодека                     : S_TEXT/UTF8
Идентификатор кодека/Информация          : UTF-8 Plain Text
Продолжительность                        : 2 ч. 7 м.
Битрейт                                  : 117 бит/сек
ElementCount                             : 1647
Размер потока                            : 109 Кбайт (0%)
Заголовок                                : Неизвестный #2
Язык                                     : Russian
Default                                  : Нет
Forced                                   : Нет
Текст #4
Идентификатор                            : 19
Формат                                   : UTF-8
Идентификатор кодека                     : S_TEXT/UTF8
Идентификатор кодека/Информация          : UTF-8 Plain Text
Продолжительность                        : 2 ч. 7 м.
Битрейт                                  : 111 бит/сек
ElementCount                             : 1659
Размер потока                            : 104 Кбайт (0%)
Заголовок                                : Stevvie
Язык                                     : Russian
Default                                  : Нет
Forced                                   : Нет
Текст #5
Идентификатор                            : 20
Формат                                   : UTF-8
Идентификатор кодека                     : S_TEXT/UTF8
Идентификатор кодека/Информация          : UTF-8 Plain Text
Продолжительность                        : 2 ч. 5 м.
Битрейт                                  : 72 бит/сек
ElementCount                             : 1811
Размер потока                            : 66,5 Кбайт (0%)
Заголовок                                : Full
Язык                                     : English
Default                                  : Нет
Forced                                   : Нет
Текст #6
Идентификатор                            : 21
Формат                                   : UTF-8
Идентификатор кодека                     : S_TEXT/UTF8
Идентификатор кодека/Информация          : UTF-8 Plain Text
Продолжительность                        : 2 ч. 6 м.
Битрейт                                  : 75 бит/сек
ElementCount                             : 1958
Размер потока                            : 70,3 Кбайт (0%)
Заголовок                                : Full (SDH)
Язык                                     : English
Default                                  : Нет
Forced                                   : Нет
Текст #7
Идентификатор                            : 22
Формат                                   : UTF-8
Идентификатор кодека                     : S_TEXT/UTF8
Идентификатор кодека/Информация          : UTF-8 Plain Text
Продолжительность                        : 2 ч. 9 м.
Битрейт                                  : 132 бит/сек
ElementCount                             : 2219
Размер потока                            : 126 Кбайт (0%)
Заголовок                                : Commentary by Terry Gilliam and producer Charles Roven
Язык                                     : English
Default                                  : Нет
Forced                                   : Нет
Меню
00:00:00.000                             : en:Main Title
00:01:52.070                             : en:The "Volunteer"
00:08:33.137                             : en:An Opportunity
00:10:56.697                             : en:Baltimore - April 1990
00:15:59.249                             : en:The Deluxe Mental Hospital Tour
00:21:27.994                             : en:The Wrong Time
00:25:17.306                             : en:Colonics for everyone!
00:29:27.139                             : en:Monkey Business
00:33:33.093                             : en:Emancipation
00:36:28.435                             : en:Bad Judgment
00:37:54.520                             : en:Science Ain't an Exact Science
00:39:58.728                             : en:Another Chance
00:42:04.186                             : en:Right on the Money
00:44:43.095                             : en:Baltimore - November 1996
00:47:45.319                             : en:It's in Philapelphia...
00:53:47.805                             : en:The Same Dream
00:57:12.093                             : en:Cole's Mission
00:58:48.189                             : en:They're Here!
01:01:26.472                             : en:All I See Are Dead People...
01:03:22.462                             : en:The Animal Activists
01:06:31.651                             : en:Going After Jeffrey
01:10:06.699                             : en:The Timeworn Threat
01:15:49.750                             : en:It Was My Idea?
01:18:25.989                             : en:The Normal Reaction
01:21:03.229                             : en:You Are My Insanity
01:23:41.012                             : en:Tell Me What I Whant...
01:25:12.270                             : en:The Man in the Picture
01:26:35.394                             : en:What's Real and What's Not
01:29:02.500                             : en:The Path of the Virus
01:30:59.658                             : en:Mentally Divergent
01:32:37.297                             : en:Seriously Crazy
01:34:33.372                             : en:I Want to Stay Here...
01:39:24.245                             : en:The Pimp and the Crazy Dentist
01:41:38.546                             : en:The Message
01:44:31.427                             : en:The Monkey Speaks
01:46:31.714                             : en:The Movie Never Changes
01:49:19.214                             : en:It Was Always You...
01:50:56.228                             : en:The Army of Twelve Monkeys Factor
01:52:46.921                             : en:This is My Dream!
01:54:29.607                             : en:Someone Else
01:56:31.938                             : en:You Can Still Be a Hero
01:59:04.965                             : en:It Doesn't Even Have an Odor...
02:01:06.253                             : en:Full Circle
02:04:11.897                             : en:Insurance
02:05:30.642                             : en:End Titles



Arrow Films (2018) 1080p @ 26981 kbps:

interdude писал(а):
Цитата:
    Реставрация со скана негатива в разрешении 4K, выполненная компанией Arrow Films и одобренная Терри Гиллиамом;
    Дубляж от Netflix доступен благодаря -Azureus-;
    Премьер Видео Фильм, СТС и ОРТ взяты из раздачи BDRip от JUSTKANT. Пересобраны для устранения шумов, наводок, щелчков и пр.;
    Гланц и Королёва, Живов и украинская дорожки - из раздачи BDRemux от HumanNK. Получены наложением чистых голосов на центр декодированного DTS-HD MA. Работа со звуком - Fon_Perez (экс-HDClub);
    Дорожка с переводом Гаврилова - отсюда. Получена наложением чистого голоса на центр декодированного DTS-HD MA. Работа со звуком - Panas;
    Дорожка с озвучкой Чадова доступна благодаря сайту Переулок Переводмана. Перевод и работа со звуком - Переводман. Ненормативная лексика;
    Визгунов и Карцев - из раздачи BDRemux от HumanNK. Пересобраны для устранения шумов, наводок, щелчков и пр.;
    Дорожка СТС прерывалась на финальных титрах. Сделана вставка из оригинальной дорожки;
    Визгунов - на участок без перевода сделана вставка из Гаврилова;
    В субтитрах Неизвестный #2 и Stevvie - ненормативная лексика;
    Обзор изданий и дополнительные сравнения здесь и здесь.

#77
Не забывайте говорить Спасибо. Не уходите с раздачи!   
Торрент: Зарегистрирован [05 ноя 2018, 12:50]
Статус:
Проверен
 
.torrent скачан: 0 раз
Хэш: 732b17b565b47a546e872bec1d1f463ad8cb8643
Размер: 49.71 ГБ (53 375 395 997 байт)
   Стать Автором раздачи
   
Цитата
  • Похожие торренты
    Ответы
    Просмотры
    Последнее сообщение

Вернуться в Зарубежное кино (HD Video)

Кто сейчас на конференции

Сейчас эту тему просматривают: нет зарегистрированных пользователей и гости: 1