Коллайдер / Collider (Джастин Льюис / Justin Lewis) [2018, США, фантастика, боевик, WEB-DL 1080p] MVO + Sub Eng + Original Eng

Фильмы категории "Б" / эксплуатационное кино / киномусор
 Статистика раздачи 
Размер: 6.97 ГБ   |  Зарегистрирован: 30 ноя 2019, 20:33   |   .torrent скачан: 107 раз
Сидеров: 8  [ 0 байт/сек ]     Личеров: 1  [ 0 байт/сек ]  
  
Аватара пользователя
Главный редактор
Главный редактор
Я на сайте
 
Раздал: 90.01 ТБ
Скачал: 3.78 ТБ
Ратио: 24.248
Сообщения: 285796
Стаж: 9 лет 3 месяца 28 дней
Откуда: Санкт-Петербург

Коллайдер / Collider

Страна: США
Жанр: Фантастика, боевик
Год выпуска: 2018
Продолжительность: 01:24:18
Перевод: Профессиональный (многоголосый закадровый)
Субтитры: Английские
Оригинальная аудиодорожка: Английский
Режиссер: Джастин Льюис / Justin Lewis
В ролях: Кристин Масколо, Джуд Моран, Михаил Васичек, Коннер Гринхалг, Елена Роуз Дэвис, Хит С. Хейн, Мэтт Мэйбауэр, Дуайт Брасвелл, Жаклин Гест, Алекс Кэмпбелл
Описание: 2033 год. Молодая девушка находится в таинственном приюте. Решив бросить вызов судьбе, она отправляется в прошлое, чтобы найти своих родителей и изменить ход событий.

Тип релиза: WEB-DL 1080p
Контейнер: MKV
Видео: MPEG-4 AVC, 1080p, 1920:800 (2.40:1), 10.9 Mbps, 23.976 fps
Аудио 1: АC3, 2 ch, 48 kHz, 256 kbps, 16 bits Русский
Аудио 2: Е-AC3, 6 ch, 48 kHz, 640 kbps Английский
Формат субтитров: SRT
Код: Выделить всё
General
Unique ID                                : 95804694253511763013688153667585660659 (0x4813501D54FB63FD4A37B9E2894756F3)
Complete name                            : G:\Collider.2018.AMZN.WEB-DL.1080p.mkv
Format                                   : Matroska
Format version                           : Version 4 / Version 2
File size                                : 6.97 GiB
Duration                                 : 1 h 24 min
Overall bit rate                         : 11.8 Mb/s
Encoded date                             : UTC 2019-11-28 00:40:09
Writing application                      : mkvmerge v20.0.0 ('I Am The Sun') 64-bit
Writing library                          : libebml v1.3.5 + libmatroska v1.4.8
Video
ID                                       : 1
Format                                   : AVC
Format/Info                              : Advanced Video Codec
Format profile                           : High@L4
Format settings                          : CABAC / 4 Ref Frames
Format settings, CABAC                   : Yes
Format settings, RefFrames               : 4 frames
Codec ID                                 : V_MPEG4/ISO/AVC
Duration                                 : 1 h 24 min
Bit rate                                 : 10.9 Mb/s
Width                                    : 1 920 pixels
Height                                   : 800 pixels
Display aspect ratio                     : 2.40:1
Frame rate mode                          : Constant
Frame rate                               : 23.976 (24000/1001) FPS
Color space                              : YUV
Chroma subsampling                       : 4:2:0
Bit depth                                : 8 bits
Scan type                                : Progressive
Bits/(Pixel*Frame)                       : 0.297
Stream size                              : 6.44 GiB (92%)
Language                                 : English
Default                                  : Yes
Forced                                   : No
Color range                              : Limited
Color primaries                          : BT.709
Transfer characteristics                 : BT.709
Matrix coefficients                      : BT.709
Audio #1
ID                                       : 2
Format                                   : AC-3
Format/Info                              : Audio Coding 3
Codec ID                                 : A_AC3
Duration                                 : 1 h 24 min
Bit rate mode                            : Constant
Bit rate                                 : 256 kb/s
Channel(s)                               : 2 channels
Channel positions                        : Front: L R
Sampling rate                            : 48.0 kHz
Frame rate                               : 31.250 FPS (1536 SPF)
Bit depth                                : 16 bits
Compression mode                         : Lossy
Stream size                              : 154 MiB (2%)
Title                                    : MVO
Language                                 : Russian
Service kind                             : Complete Main
Default                                  : Yes
Forced                                   : No
Audio #2
ID                                       : 3
Format                                   : E-AC-3
Format/Info                              : Enhanced Audio Coding 3
Codec ID                                 : A_EAC3
Duration                                 : 1 h 24 min
Bit rate mode                            : Constant
Bit rate                                 : 640 kb/s
Channel(s)                               : 6 channels
Channel positions                        : Front: L C R, Side: L R, LFE
Sampling rate                            : 48.0 kHz
Frame rate                               : 187.500 FPS (256 SPF)
Compression mode                         : Lossy
Stream size                              : 386 MiB (5%)
Language                                 : English
Service kind                             : Complete Main
Default                                  : No
Forced                                   : No
Text
ID                                       : 4
Format                                   : UTF-8
Codec ID                                 : S_TEXT/UTF8
Codec ID/Info                            : UTF-8 Plain Text
Duration                                 : 1 h 19 min
Bit rate                                 : 44 b/s
Count of elements                        : 880
Stream size                              : 25.7 KiB (0%)
Language                                 : English
Default                                  : No
Forced                                   : No
Не забывайте говорить Спасибо. Не уходите с раздачи!   
Торрент: Зарегистрирован [30 ноя 2019, 20:33]
Статус:
Проверен
 
.torrent скачан: 107 раз
Хэш: 0885779d0160a8651992f72f7361985af1bfe69b
Размер: 6.97 ГБ (7 479 166 175 байт)
   Стать Автором раздачи
   
Цитата

Вернуться в Грайндхаус

Кто сейчас на конференции

Сейчас эту тему просматривают: нет зарегистрированных пользователей и гости: 1