Шерлок Холмс / Sherlock Holmes (2009 - 2011) BDRip [H.264/1080p] [Дилогия]

 Статистика раздачи 
Размер: 20.59 ГБ   |  Зарегистрирован: 05 дек 2019, 07:03   |   .torrent скачан: 0 раз
Сидеров: 25  [ 0 байт/сек ]     Личеров: 1  [ 0 байт/сек ]  
  
Аватара пользователя
Я на сайте
 
Раздал: 6.64 ТБ
Скачал: 597.93 ГБ
Ратио: 11.363
Сообщения: 264344
Стаж: 3 года 2 месяца 15 дней

Шерлок Холмс / Sherlock Holmes (2009 - 2011) BDRip [H.264/1080p] [Дилогия]

Год выпуска: 2009, 2011
Производство: США, Германия / Warner Bros., Village Roadshow Pictures, Silver Pictures
Жанр: боевик, приключения, триллер, драма, комедия, криминал, детектив

Режиссер: Гай Ричи
Актеры: Роберт Дауни мл., Джуд Лоу, Рэйчел МакАдамс, Марк Стронг, Эдди Марсан, Роберт Мэйллет, Джеральдин Джеймс, Келли Райлли, Уильям Хьюстон, Ганс Мэтисон

Описание:
«Шерлок Холмс» (англ. Sherlock Holmes) — детективный боевик Гая Ричи, в основе которого лежат произведения Артура Конан Дойля о Шерлоке Холмсе, хотя основной сюжет оригинален.

Продолжительность: 02:08:25 / 02:08:45
Качество видео: BDRip
Перевод: Дублированный
Субтитры: русские, английские

Видео: AVC/H.264, 1920x1080 / 1920x800, ~ 10.2 - 10.6 mbps
Аудио 1: AC3, 6 ch, 448 kbps, Русский (DUB Blu-ray CEE)
Аудио 2: AC3, 6 ch, 640 kbps, Английский
Шерлок Холмс (2009) / Sherlock Holmes (2009) BDRip

#77Производство: США, Германия / Warner Bros., Village Roadshow Pictures, Silver Pictures
Жанр: боевик, приключения, триллер, драма, комедия, криминал, детектив

Режиссер: Гай Ричи
Актеры: Роберт Дауни мл., Джуд Лоу, Рэйчел МакАдамс, Марк Стронг, Эдди Марсан, Роберт Мэйллет, Джеральдин Джеймс, Келли Райлли, Уильям Хьюстон, Ганс Мэтисон

Описание:
Величайший в истории сыщик Шерлок Холмс вместе со своим верным соратником Ватсоном вступают в схватку, требующую нешуточной физической и умственной подготовки, ведь их враг представляет угрозу для всего Лондона.

https://www.imdb.com/title/tt0988045/?ref_=plg_rt_1
Возраст: 12+ (зрителям, достигшим 12 лет)
Рейтинг MPAA: PG-13 (детям до 13 лет просмотр нежелателен)

Продолжительность: 02:08:25
Качество видео: BDRip
Перевод: Дублированный
Субтитры: русские,английские

Видео: AVC/H.264, 1920x1080, ~ 10.2 mbps
Аудио 1: AC3, 6 ch, 448 kbps, Русский (DUB Blu-ray CEE)
Аудио 2: AC3, 6 ch, 640 kbps, Английский
Код: Выделить всё
Общее
Уникальный идентификатор                 : 194132656609755686178575048137941223031 (0x920C96F39E3C490DB13441A2C6048677)
Полное имя                               : D:\FILMS\Sherlock.Holmes\Sherlock.Holmes.2009.BDRip.1080p.mkv
Формат                                   : Matroska
Версия формата                           : Version 4
Размер файла                             : 10,1 Гбайт
Продолжительность                        : 2 ч. 8 м.
Общий поток                              : 11,3 Мбит/сек
Название фильма                          : Sherlock Holmes (2009)
Дата кодирования                         : UTC 2019-12-04 09:45:07
Программа кодирования                    : mkvmerge v8.2.0 ('World of Adventure') 64bit
Библиотека кодирования                   : libebml v1.3.1 + libmatroska v1.4.2

Видео
Идентификатор                            : 1
Формат                                   : AVC
Формат/Информация                        : Advanced Video Codec
Профиль формата                          : [url=http://nnmclub.to/mailto:High@L4.1]High@L4.1[/url]
Настройки формата                        : CABAC / 4 Ref Frames
Параметр CABAC формата                   : Да
Параметр RefFrames формата               : 4 кадра
Идентификатор кодека                     : V_MPEG4/ISO/AVC
Продолжительность                        : 2 ч. 8 м.
Битрейт                                  : 10,2 Мбит/сек
Ширина                                   : 1920 пикселей
Высота                                   : 1080 пикселей
Соотношение сторон                       : 16:9
Режим частоты кадров                     : Постоянный
Частота кадров                           : 23,976 (24000/1001) кадра/сек
Цветовое пространство                    : YUV
Субдискретизация насыщенности            : 4:2:0
Битовая глубина                          : 8 бит
Тип развёртки                            : Прогрессивная
Бит/(Пиксели*Кадры)                      : 0.205
Размер потока                            : 9,15 Гбайт (90%)
Заголовок                                : potroks
Библиотека кодирования                   : x264 core 152 r2851M ba24899
Настройки программы                      : cabac=1 / ref=4 / deblock=1:-3:-3 / analyse=0x3:0x113 / me=umh / subme=11 / psy=1 / psy_rd=0.96:0.02 / mixed_ref=1 / me_range=48 / chroma_me=1 / trellis=2 / 8x8dct=1 / cqm=0 / deadzone=21,11 / fast_pskip=0 / chroma_qp_offset=-3 / threads=9 / lookahead_threads=1 / sliced_threads=0 / nr=0 / decimate=0 / interlaced=0 / bluray_compat=0 / constrained_intra=0 / bframes=9 / b_pyramid=2 / b_adapt=2 / b_bias=0 / direct=3 / weightb=1 / open_gop=0 / weightp=2 / keyint=240 / keyint_min=23 / scenecut=40 / intra_refresh=0 / rc_lookahead=0 / rc=2pass / mbtree=0 / bitrate=10200 / ratetol=1.0 / qcomp=0.70 / qpmin=0 / qpmax=69 / qpstep=4 / cplxblur=20.0 / qblur=0.5 / vbv_maxrate=62500 / vbv_bufsize=44642 / nal_hrd=none / filler=0 / ip_ratio=1.40 / pb_ratio=1.30 / aq=1:0.80
Язык                                     : English
Default                                  : Да
Forced                                   : Нет

Аудио #1
Идентификатор                            : 2
Формат                                   : AC-3
Формат/Информация                        : Audio Coding 3
Коммерческое название                    : Dolby Digital
Идентификатор кодека                     : A_AC3
Продолжительность                        : 2 ч. 8 м.
Вид битрейта                             : Постоянный
Битрейт                                  : 448 Кбит/сек
Каналы                                   : 6 каналов
ChannelLayout                            : L R C LFE Ls Rs
Частота                                  : 48,0 КГц
Частота кадров                           : 31,250 кадров/сек (1536 SPF)
Метод сжатия                             : С потерями
Размер потока                            : 411 Мбайт (4%)
Заголовок                                : Dub | DD 5.1 @ 448 kbps - Blu-ray CEE
Язык                                     : Russian
ServiceKind/String                       : Complete Main
Default                                  : Да
Forced                                   : Нет

Аудио #2
Идентификатор                            : 3
Формат                                   : AC-3
Формат/Информация                        : Audio Coding 3
Коммерческое название                    : Dolby Digital
Идентификатор кодека                     : A_AC3
Продолжительность                        : 2 ч. 8 м.
Вид битрейта                             : Постоянный
Битрейт                                  : 640 Кбит/сек
Каналы                                   : 6 каналов
ChannelLayout                            : L R C LFE Ls Rs
Частота                                  : 48,0 КГц
Частота кадров                           : 31,250 кадров/сек (1536 SPF)
Метод сжатия                             : С потерями
Размер потока                            : 588 Мбайт (6%)
Заголовок                                : Original | DD 5.1 @ 640 kbps
Язык                                     : English
ServiceKind/String                       : Complete Main
Default                                  : Нет
Forced                                   : Нет

Текст #1
Идентификатор                            : 4
Формат                                   : UTF-8
Идентификатор кодека                     : S_TEXT/UTF8
Идентификатор кодека/Информация          : UTF-8 Plain Text
Продолжительность                        : 1 ч. 54 м.
Битрейт                                  : 1 бит/сек
ElementCount                             : 35
Размер потока                            : 1,54 Кбайт (0%)
Заголовок                                : Forced
Язык                                     : Russian
Default                                  : Да
Forced                                   : Нет

Текст #2
Идентификатор                            : 5
Формат                                   : UTF-8
Идентификатор кодека                     : S_TEXT/UTF8
Идентификатор кодека/Информация          : UTF-8 Plain Text
Продолжительность                        : 2 ч. 6 м.
Битрейт                                  : 90 бит/сек
ElementCount                             : 1448
Размер потока                            : 84,1 Кбайт (0%)
Заголовок                                : Blu-ray CEE
Язык                                     : Russian
Default                                  : Нет
Forced                                   : Нет

Текст #3
Идентификатор                            : 6
Формат                                   : UTF-8
Идентификатор кодека                     : S_TEXT/UTF8
Идентификатор кодека/Информация          : UTF-8 Plain Text
Продолжительность                        : 2 ч. 1 м.
Битрейт                                  : 101 бит/сек
ElementCount                             : 1384
Размер потока                            : 90,6 Кбайт (0%)
Заголовок                                : Full [Voronine]
Язык                                     : Russian
Default                                  : Нет
Forced                                   : Нет

Текст #4
Идентификатор                            : 7
Формат                                   : UTF-8
Идентификатор кодека                     : S_TEXT/UTF8
Идентификатор кодека/Информация          : UTF-8 Plain Text
Продолжительность                        : 2 ч. 1 м.
Битрейт                                  : 129 бит/сек
ElementCount                             : 1476
Размер потока                            : 115 Кбайт (0%)
Заголовок                                : SDH-Colored [Voronine]
Язык                                     : Russian
Default                                  : Нет
Forced                                   : Нет

Текст #5
Идентификатор                            : 8
Формат                                   : UTF-8
Идентификатор кодека                     : S_TEXT/UTF8
Идентификатор кодека/Информация          : UTF-8 Plain Text
Продолжительность                        : 2 ч. 1 м.
Битрейт                                  : 123 бит/сек
ElementCount                             : 1384
Размер потока                            : 110 Кбайт (0%)
Заголовок                                : Colored [Voronine]
Язык                                     : Russian
Default                                  : Нет
Forced                                   : Нет

Текст #6
Идентификатор                            : 9
Формат                                   : UTF-8
Идентификатор кодека                     : S_TEXT/UTF8
Идентификатор кодека/Информация          : UTF-8 Plain Text
Продолжительность                        : 1 ч. 58 м.
Битрейт                                  : 57 бит/сек
ElementCount                             : 1409
Размер потока                            : 50,2 Кбайт (0%)
Заголовок                                : Full
Язык                                     : English
Default                                  : Нет
Forced                                   : Нет

Текст #7
Идентификатор                            : 10
Формат                                   : UTF-8
Идентификатор кодека                     : S_TEXT/UTF8
Идентификатор кодека/Информация          : UTF-8 Plain Text
Продолжительность                        : 2 ч. 0 м.
Битрейт                                  : 59 бит/сек
ElementCount                             : 1503
Размер потока                            : 52,8 Кбайт (0%)
Заголовок                                : SDH
Язык                                     : English
Default                                  : Нет
Forced                                   : Нет

Текст #8
Идентификатор                            : 11
Формат                                   : UTF-8
Идентификатор кодека                     : S_TEXT/UTF8
Идентификатор кодека/Информация          : UTF-8 Plain Text
Продолжительность                        : 2 ч. 0 м.
Битрейт                                  : 68 бит/сек
ElementCount                             : 1502
Размер потока                            : 59,9 Кбайт (0%)
Заголовок                                : SDH-Colored
Язык                                     : English
Default                                  : Нет
Forced                                   : Нет

Меню
00:00:00.000                             : en:Catching a Killer
00:06:46.531                             : en:Case of Stagnation
00:11:30.231                             : en:Telling About Mary
00:15:41.607                             : en:Blow by Blow
00:19:08.898                             : en:Last Request
00:23:29.074                             : en:Bound Together
00:27:49.876                             : en:Miss Adler For Hire
00:32:01.253                             : en:The Irene I Know
00:37:08.434                             : en:Resurrection
00:40:50.406                             : en:Apt Prediction
00:44:37.216                             : en:Sorcery and Science
00:47:39.690                             : en:Meat or Potatoes?
00:50:52.174                             : en:Giving Up the Ship
00:55:17.606                             : en:Friends in High Places
00:59:04.457                             : en:Blackwood's Lineage
01:03:04.781                             : en:Mutual Danger
01:06:08.047                             : en:Dead and Bath
01:11:14.103                             : en:Remake the World
01:14:39.350                             : en:On Purpose
01:17:36.318                             : en:Lambs to Slaughter
01:23:35.093                             : en:Trap For Three
01:26:06.953                             : en:The Best You Can Do
01:30:57.160                             : en:Next Target
01:35:15.376                             : en:Smoking Out a Coward
01:39:45.980                             : en:Countdown to Noon
01:44:18.002                             : en:Bell and Death Tolls
01:48:21.954                             : en:Cutting a Conjurer Loose
01:54:02.711                             : en:My Weak Spot
01:56:07.502                             : en:Moriarty's Mark
02:00:26.177                             : en:End Credits

Скриншоты:


Шерлок Холмс: Игра теней (2011) / Sherlock Holmes: A Game of Shadows (2011) BDRip

#77Производство: США / Warner Bros., Village Roadshow Pictures, Silver Pictures
Жанр: боевик, приключения, триллер, драма, комедия, криминал, детектив

Режиссер: Гай Ричи
Актеры: Роберт Дауни мл. , Джуд Лоу , Нуми Рапас , Джаред Харрис , Пол Андерсон , Стивен Фрай , Рэйчел МакАдамс , Келли Райлли , Джеральдин Джеймс , Эдди Марсан

Описание:
1891 год. В Вене и Страсбурге проходит серия терактов, организованных анархистами или националистами, а по всей Европе происходят таинственные убийства. Шерлок Холмс считает, что за всем этим стоит профессор Джеймс Мориарти — математический гений, автор знаменитых лекций и трудов.

https://www.imdb.com/title/tt1515091/?ref_=plg_rt_1
Возраст: 12+ (зрителям, достигшим 12 лет)
Рейтинг MPAA: PG-13 (детям до 13 лет просмотр нежелателен)

Продолжительность: 02:08:45
Качество видео: BDRip
Перевод: Дублированный
Субтитры: русские,английские

Видео: AVC/H.264, 1920x800, ~ 10.6 mbps
Аудио 1: AC3, 6 ch, 448 kbps, Русский (DUB Blu-ray CEE)
Аудио 2: AC3, 6 ch, 640 kbps, Английский
Код: Выделить всё
Общее
Уникальный идентификатор                 : 234823566029154852251499407180913399977 (0xB0A95FADD6FAA6B899BE9C660E2B58A9)
Полное имя                               : D:\FILMS\Sherlock.Holmes\Sherlock.Holmes.A.Game.of.Shadows.2011.BDRip.1080p.mkv
Формат                                   : Matroska
Версия формата                           : Version 4
Размер файла                             : 10,5 Гбайт
Продолжительность                        : 2 ч. 8 м.
Общий поток                              : 11,6 Мбит/сек
Название фильма                          : Sherlock Holmes (2009)
Дата кодирования                         : UTC 2019-12-04 10:08:01
Программа кодирования                    : mkvmerge v8.2.0 ('World of Adventure') 64bit
Библиотека кодирования                   : libebml v1.3.1 + libmatroska v1.4.2

Видео
Идентификатор                            : 1
Формат                                   : AVC
Формат/Информация                        : Advanced Video Codec
Профиль формата                          : [url=http://nnmclub.to/mailto:High@L4.1]High@L4.1[/url]
Настройки формата                        : CABAC / 5 Ref Frames
Параметр CABAC формата                   : Да
Параметр RefFrames формата               : 5 кадров
Идентификатор кодека                     : V_MPEG4/ISO/AVC
Продолжительность                        : 2 ч. 8 м.
Битрейт                                  : 10,6 Мбит/сек
Ширина                                   : 1920 пикселей
Высота                                   : 800 пикселей
Соотношение сторон                       : 2,40:1
Режим частоты кадров                     : Постоянный
Частота кадров                           : 23,976 (24000/1001) кадра/сек
Цветовое пространство                    : YUV
Субдискретизация насыщенности            : 4:2:0
Битовая глубина                          : 8 бит
Тип развёртки                            : Прогрессивная
Бит/(Пиксели*Кадры)                      : 0.287
Размер потока                            : 9,48 Гбайт (91%)
Заголовок                                : potroks
Библиотека кодирования                   : x264 core 152 r2851M ba24899
Настройки программы                      : cabac=1 / ref=5 / deblock=1:-3:-3 / analyse=0x3:0x113 / me=umh / subme=11 / psy=1 / psy_rd=0.96:0.03 / mixed_ref=1 / me_range=48 / chroma_me=1 / trellis=2 / 8x8dct=1 / cqm=0 / deadzone=21,11 / fast_pskip=0 / chroma_qp_offset=-3 / threads=9 / lookahead_threads=1 / sliced_threads=0 / nr=0 / decimate=0 / interlaced=0 / bluray_compat=0 / constrained_intra=0 / bframes=9 / b_pyramid=2 / b_adapt=2 / b_bias=0 / direct=3 / weightb=1 / open_gop=0 / weightp=2 / keyint=240 / keyint_min=23 / scenecut=40 / intra_refresh=0 / rc_lookahead=0 / rc=2pass / mbtree=0 / bitrate=10551 / ratetol=1.0 / qcomp=0.70 / qpmin=0 / qpmax=69 / qpstep=4 / cplxblur=20.0 / qblur=0.5 / vbv_maxrate=62500 / vbv_bufsize=44642 / nal_hrd=none / filler=0 / ip_ratio=1.40 / pb_ratio=1.30 / aq=1:0.70
Язык                                     : English
Default                                  : Да
Forced                                   : Нет

Аудио #1
Идентификатор                            : 2
Формат                                   : AC-3
Формат/Информация                        : Audio Coding 3
Коммерческое название                    : Dolby Digital
Идентификатор кодека                     : A_AC3
Продолжительность                        : 2 ч. 8 м.
Вид битрейта                             : Постоянный
Битрейт                                  : 448 Кбит/сек
Каналы                                   : 6 каналов
ChannelLayout                            : L R C LFE Ls Rs
Частота                                  : 48,0 КГц
Частота кадров                           : 31,250 кадров/сек (1536 SPF)
Метод сжатия                             : С потерями
Размер потока                            : 413 Мбайт (4%)
Заголовок                                : Dub | DD 5.1 @ 448 kbps - Bluray CEE
Язык                                     : Russian
ServiceKind/String                       : Complete Main
Default                                  : Да
Forced                                   : Нет

Аудио #2
Идентификатор                            : 3
Формат                                   : AC-3
Формат/Информация                        : Audio Coding 3
Коммерческое название                    : Dolby Digital
Идентификатор кодека                     : A_AC3
Продолжительность                        : 2 ч. 8 м.
Вид битрейта                             : Постоянный
Битрейт                                  : 640 Кбит/сек
Каналы                                   : 6 каналов
ChannelLayout                            : L R C LFE Ls Rs
Частота                                  : 48,0 КГц
Частота кадров                           : 31,250 кадров/сек (1536 SPF)
Метод сжатия                             : С потерями
Размер потока                            : 589 Мбайт (5%)
Заголовок                                : Original | DD 5.1 @ 640 kbps
Язык                                     : English
ServiceKind/String                       : Complete Main
Default                                  : Нет
Forced                                   : Нет

Текст #1
Идентификатор                            : 4
Формат                                   : UTF-8
Идентификатор кодека                     : S_TEXT/UTF8
Идентификатор кодека/Информация          : UTF-8 Plain Text
Продолжительность                        : 1 ч. 41 м.
Битрейт                                  : 1 бит/сек
ElementCount                             : 30
Размер потока                            : 1,27 Кбайт (0%)
Заголовок                                : Forced
Язык                                     : Russian
Default                                  : Да
Forced                                   : Нет

Текст #2
Идентификатор                            : 5
Формат                                   : UTF-8
Идентификатор кодека                     : S_TEXT/UTF8
Идентификатор кодека/Информация          : UTF-8 Plain Text
Продолжительность                        : 1 ч. 59 м.
Битрейт                                  : 79 бит/сек
ElementCount                             : 1178
Размер потока                            : 69,8 Кбайт (0%)
Заголовок                                : Blu-ray CEE
Язык                                     : Russian
Default                                  : Нет
Forced                                   : Нет

Текст #3
Идентификатор                            : 6
Формат                                   : UTF-8
Идентификатор кодека                     : S_TEXT/UTF8
Идентификатор кодека/Информация          : UTF-8 Plain Text
Продолжительность                        : 2 ч. 2 м.
Битрейт                                  : 84 бит/сек
ElementCount                             : 1258
Размер потока                            : 75,4 Кбайт (0%)
Заголовок                                : Full [Voronine]
Язык                                     : Russian
Default                                  : Нет
Forced                                   : Нет

Текст #4
Идентификатор                            : 7
Формат                                   : UTF-8
Идентификатор кодека                     : S_TEXT/UTF8
Идентификатор кодека/Информация          : UTF-8 Plain Text
Продолжительность                        : 2 ч. 2 м.
Битрейт                                  : 92 бит/сек
ElementCount                             : 1480
Размер потока                            : 83,3 Кбайт (0%)
Заголовок                                : SDH [Voronine]
Язык                                     : Russian
Default                                  : Нет
Forced                                   : Нет

Текст #5
Идентификатор                            : 8
Формат                                   : UTF-8
Идентификатор кодека                     : S_TEXT/UTF8
Идентификатор кодека/Информация          : UTF-8 Plain Text
Продолжительность                        : 1 ч. 59 м.
Битрейт                                  : 81 бит/сек
ElementCount                             : 1181
Размер потока                            : 71,6 Кбайт (0%)
Заголовок                                : Notabenoid
Язык                                     : Russian
Default                                  : Нет
Forced                                   : Нет

Текст #6
Идентификатор                            : 9
Формат                                   : UTF-8
Идентификатор кодека                     : S_TEXT/UTF8
Идентификатор кодека/Информация          : UTF-8 Plain Text
Продолжительность                        : 1 ч. 59 м.
Битрейт                                  : 48 бит/сек
ElementCount                             : 1180
Размер потока                            : 42,8 Кбайт (0%)
Заголовок                                : Full
Язык                                     : English
Default                                  : Нет
Forced                                   : Нет

Текст #7
Идентификатор                            : 10
Формат                                   : UTF-8
Идентификатор кодека                     : S_TEXT/UTF8
Идентификатор кодека/Информация          : UTF-8 Plain Text
Продолжительность                        : 1 ч. 59 м.
Битрейт                                  : 54 бит/сек
ElementCount                             : 1459
Размер потока                            : 47,8 Кбайт (0%)
Заголовок                                : SDH
Язык                                     : English
Default                                  : Нет
Forced                                   : Нет

Текст #8
Идентификатор                            : 11
Формат                                   : UTF-8
Идентификатор кодека                     : S_TEXT/UTF8
Идентификатор кодека/Информация          : UTF-8 Plain Text
Продолжительность                        : 2 ч. 8 м.
Битрейт                                  : 63 бит/сек
ElementCount                             : 1448
Размер потока                            : 59,8 Кбайт (0%)
Заголовок                                : SDH-Colored
Язык                                     : English
Default                                  : Нет
Forced                                   : Нет

Меню
00:00:00.000                             : en:00:00:00.000
00:09:18.266                             : en:00:09:18.266
00:19:37.635                             : en:00:19:37.635
00:30:46.845                             : en:00:30:46.845
00:40:13.703                             : en:00:40:13.703
00:50:29.026                             : en:00:50:29.026
00:59:45.457                             : en:00:59:45.457
01:09:20.823                             : en:01:09:20.823
01:18:58.275                             : en:01:18:58.275
01:30:08.695                             : en:01:30:08.695
01:39:08.734                             : en:01:39:08.734
01:49:50.375                             : en:01:49:50.375
02:00:24.717                             : en:02:00:24.717

Скриншоты:



Скриншоты:




Время раздачи: c 5 до 19 мск (до появления первых 3-5 скачавших)
Год выпуска: 2009, 2011
Производство: США, Германия / Warner Bros., Village Roadshow Pictures, Silver Pictures
Жанр: боевик, приключения, триллер, драма, комедия, криминал, детектив

Режиссер: Гай Ричи
Актеры: Роберт Дауни мл., Джуд Лоу, Рэйчел МакАдамс, Марк Стронг, Эдди Марсан, Роберт Мэйллет, Джеральдин Джеймс, Келли Райлли, Уильям Хьюстон, Ганс Мэтисон

Описание:
«Шерлок Холмс» (англ. Sherlock Holmes) — детективный боевик Гая Ричи, в основе которого лежат произведения Артура Конан Дойля о Шерлоке Холмсе, хотя основной сюжет оригинален.

Продолжительность: 02:08:25 / 02:08:45
Качество видео: BDRip
Перевод: Дублированный
Субтитры: русские, английские
Не забывайте говорить Спасибо. Не уходите с раздачи!   
Торрент: Зарегистрирован [05 дек 2019, 07:03]
Статус:
Проверен
 
.torrent скачан: 0 раз
Хэш: 81f694a3b3614e3706d712b079013abdd48f67db
Размер: 20.59 ГБ (22 109 819 059 байт)
   Стать Автором раздачи
   
Цитата

Вернуться в Зарубежное кино (Сборники DVD, HD Video)

Кто сейчас на конференции

Сейчас эту тему просматривают: нет зарегистрированных пользователей и гости: 1