BBC: ХИРОСИМА / BBC: HIROSHIMA (2005) (DVDRip)

 Статистика раздачи 
Размер: 931.49 МБ   |  Зарегистрирован: 02 дек 2019, 19:02   |   .torrent скачан: 0 раз
Сидеров: 5  [ 0 байт/сек ]     Личеров: 1  [ 0 байт/сек ]  
  
Аватара пользователя
 
Раздал: 2.75 ТБ
Скачал: 89.62 ГБ
Ратио: 31.394
Сообщения: 223869
Стаж: 3 года 5 месяцев 3 дня
СообщениеДобавлено: 02 дек 2019, 19:02


BBC: ХИРОСИМА / BBC: HIROSHIMA (2005) (DVDRip)

Жанр: документальный, научно-исторический

Описание:
26 июля крейсер "Индианаполис" доставил атомную бомбу "Малыш" на остров Тиниан. 6 августа 1945 года американский военный самолет Б-29 "Энола Гей", пилотируемый Томасом Фереби, взлетел с Тиниана. А в 8:15 по местному времени этот самолет сбросил бомбу на японский город Хиросима. Бомба мощностью 20 тыс. тонн тротилового эквивалента взорвалась на высоте 600 метров над городом...
В этой программе с помощью реальной кинохроники, актеров и компьютерной графики воссозданы события чудовищной и впечатляющей бомбардировки в истории человечества. Это была не просто военная операция, а демонстрация силы США. В результате которой до конца 1945 гола в Хиросиме погибло около 140 тысяч человек - почти половина населения города. Тысячи других жителей умерли от полученных ранений и лучевой болезни в последовавшие годы. Очень важно, чтобы трагическая судьба Хиросимы сохранялась в исторической памяти подрастающих поколений.



Режиссер: Поль Вилмшурст
Актеры:
Нобору Акима, Джордж Энтон, Роберт Остин, эД Бишоп
Продолжительность: 1:37:48
Видеокодек: XviD
Битрейт видео: 1200 кб/с
Размер кадра: 640x352
Качество видео: DVDRip
Аудиокодек: MP3
Битрейт аудио: 96 кб/с
Перевод: Многоголосый
Код: выделить всеОбщее
Полное имя                               : BBC - Хиросима (Hirosima)\hirosima.BBC.1of2.640x352.1200kbps.XviD.stereo.rus.DVDRip.avi
Формат                                   : AVI
Формат/Информация                        : Audio Video Interleave
Размер файла                             : 465 Мбайт
Продолжительность                        : 48 м.
Режим общего битрейта                    : Переменный
Общий поток                              : 1332 Кбит/сек
Программа кодирования                    : VirtualDubMod 1.5.10.1 (build 2439/release)
Библиотека кодирования                   : VirtualDubMod build 2439/release

Видео
Идентификатор                            : 0
Формат                                   : MPEG-4 Visual
Профиль формата                          : Advanced Simple@L5
Параметр BVOP формата                    : 2
Параметр QPel формата                    : Нет
Параметр GMC формата                     : Без точки перехода
Параметр матрицы формата                 : Default (H.263)
Режим смешивания                         : Сжатый битовый поток
Идентификатор кодека                     : XVID
Идентификатор кодека/Подсказка           : XviD
Продолжительность                        : 48 м.
Битрейт                                  : 1195 Кбит/сек
Ширина                                   : 640 пикселей
Высота                                   : 352 пикселя
Соотношение сторон                       : 16:9
Частота кадров                           : 25,000 кадров/сек
Цветовое пространство                    : YUV
Субдискретизация насыщенности            : 4:2:0
Битовая глубина                          : 8 бит
Тип развёртки                            : Прогрессивная
Метод сжатия                             : С потерями
Бит/(Пиксели*Кадры)                      : 0.212
Размер потока                            : 417 Мбайт (90%)
Библиотека кодирования                   : XviD 1.2.0SMP (UTC 2006-01-08)

Аудио
Идентификатор                            : 1
Формат                                   : MPEG Audio
Версия формата                           : Version 1
Профиль формата                          : Layer 3
Режим                                    : Dual mono
Идентификатор кодека                     : 55
Идентификатор кодека/Подсказка           : MP3
Продолжительность                        : 48 м.
Вид битрейта                             : Переменный
Битрейт                                  : 128 Кбит/сек
Каналы                                   : 2 канала
Частота                                  : 48,0 КГц
Метод сжатия                             : С потерями
Размер потока                            : 43,2 Мбайт (9%)
Выравнивание                             : Соединение по промежуткам
Продолжительность промежутка             : 24  мс. (0,60 видеокадр)
Время предзагрузки промежутка            : 527  мс.
Библиотека кодирования                   : LAME3.96r
Настройки программы                      : -m d -V 4 -q 3 -lowpass 17.5 --abr 128
Скриншоты:

Не забывайте говорить Спасибо. Не уходите с раздачи!   
Торрент: Зарегистрирован [02 дек 2019, 19:02]
Статус:
Проверен
 
.torrent скачан: 0 раз
Хэш: 596b01e422ceb1e007bef67d21c006a61e8b79fe
Размер: 931.49 МБ (976 733 799 байт)
   Стать Автором раздачи
   
Ничто так не успокаивает, как инструктаж по технике безопасности.
Цитата
  • Похожие торренты
    Ответы
    Просмотры
    Последнее сообщение

Вернуться в BBC

Кто сейчас на конференции

Сейчас эту тему просматривают: нет зарегистрированных пользователей и гости: 1