Странный Порок Миссис Ворд / Странный порок госпожи Уорд / Lo Strano vizio della Signora Wardh / The Strange Vice of Mrs. Wardh / (Серджио Мартино / Sergio Martino) [1971, Джиалло, триллер, BDRemux] VO + Original (Ita, Eng) + Sub (Eng)

Фильмы категории "Б" / эксплуатационное кино / киномусор
 Статистика раздачи 
Размер: 21.61 ГБ   |  Зарегистрирован: 13 ноя 2019, 20:15   |   .torrent скачан: 0 раз
Сидеров: 5  [ 0 байт/сек ]     Личеров: 1  [ 0 байт/сек ]  
  
Аватара пользователя
Главный редактор
Главный редактор
 
Раздал: 90.01 ТБ
Скачал: 3.78 ТБ
Ратио: 24.248
Сообщения: 291047
Стаж: 9 лет 9 месяцев 12 дней
Откуда: Санкт-Петербург

Странный Порок Миссис Ворд / Странный порок госпожи Уорд
Lo Strano vizio della Signora Wardh / The Strange Vice of Mrs. Wardh
Страна: США
Жанр: Джиалло, триллер
Год выпуска: 1971
Продолжительность: 01:40:06
Перевод: Одноголосый закадровый Арсеньев
Оригинальная аудиодорожка: итальянская
Субтитры: английские
Режиссёр: Серджио Мартино / Sergio Martino
В ролях: Джордж Хилтон / George Hilton, Эдвидж Фенек / Edwige Fenech, Кончита Айрольди / Conchita Airoldi, Иван Рассимов / Ivan Rassimov
Описание: Джули Уорд возвращается со своим мужем-дипломатом в родную Вену. В это время неизвестный терроризирует город: молодые и красивые женщины становятся жертвами убийцы с бритвой. Джули начинает подозревать своего экс-бойфренда Жана, у которого были садисткие наклонности — в сексуальных играх он любил избивать и резать ее. В это время Жан как раз появляется в городе с намерением вернуть Джули. Также за госпожой Уорд приударяет красавчик Джордж — кузен ее близкой подруги. Среди всех ее мужчин возникают очень напряженные отношения. А Джули придется использовать весь свой ум, чтобы понять, кто же убийца, ведь он все ближе и ближе…

Качество: BDRemux 1080p
Формат: MKV
Видео: MPEG-4 AVC Video / 30,0 Мбит/сек / 1080p / 24,000 кадра/сек / 16:9 / High Profile 4.1
Аудио 1: AC3, 48 kHz, 2ch, 192.00 kbps: [VO][Арсеньев]
Аудио 2: English / FLAC / 2.0 / 48 kHz / 352 kbps / 16-bit [ENG]
Аудио 3: Italian / FLAC / 2.0 / 48 kHz / 340 kbps / 16-bit [ITA]
Формат субтитров: softsub (SRT), prerendered (Blu-ray/PGS/SUP)
Разбивка на главы: есть
Общее
Уникальный идентификатор : 274833549798602519051612310946516491000 (0xCEC3042E11531146153C662D847EDAF8)
Полное имя : D:\HD видео\The Strange Vice of Mrs. Wardh 1971\The Strange Vice of Mrs. Wardh (1971) 1080p.mkv
Формат : Matroska
Версия формата : Version 4
Размер файла : 21,6 Гбайт
Продолжительность : 1 ч. 40 м.
Режим общего битрейта : Переменный
Общий поток : 30,9 Мбит/сек
Дата кодирования : UTC 2019-11-13 12:09:27
Программа кодирования : mkvmerge v38.0.0 ('The Silent Type') 64-bit
Библиотека кодирования : libebml v1.3.9 + libmatroska v1.5.2
Видео
Идентификатор : 1
Формат : AVC
Формат/Информация : Advanced Video Codec
Профиль формата : High@L4.1
Настройки формата : CABAC / 3 Ref Frames
Параметр CABAC формата : Да
Параметр RefFrames формата : 3 кадра
Параметр GOP формата : M=3, N=12
Идентификатор кодека : V_MPEG4/ISO/AVC
Продолжительность : 1 ч. 40 м.
Вид битрейта : Переменный
Битрейт : 30,0 Мбит/сек
Максимальный битрейт : 35,0 Мбит/сек
Ширина : 1920 пикселей
Высота : 1080 пикселей
Соотношение сторон : 16:9
Режим частоты кадров : Постоянный
Частота кадров : 24,000 кадра/сек
Стандарт вещания : NTSC
Цветовое пространство : YUV
Субдискретизация насыщенности : 4:2:0
Битовая глубина : 8 бит
Тип развёртки : Прогрессивная
Бит/(Пиксели*Кадры) : 0.603
Размер потока : 21,0 Гбайт (97%)
Default : Да
Forced : Нет
Цветовой диапазон : Limited
Основные цвета : BT.709
Характеристики трансфера : BT.709
Коэффициенты матрицы : BT.709
Аудио #1
Идентификатор : 2
Формат : AC-3
Формат/Информация : Audio Coding 3
Коммерческое название : Dolby Digital
Идентификатор кодека : A_AC3
Продолжительность : 1 ч. 40 м.
Вид битрейта : Постоянный
Битрейт : 192 Кбит/сек
Каналы : 2 канала
ChannelLayout : L R
Частота : 48,0 КГц
Частота кадров : 31,250 кадров/сек (1536 SPF)
Метод сжатия : С потерями
Размер потока : 137 Мбайт (1%)
Заголовок : VO (Арсеньев)
Язык : Russian
ServiceKind/String : Complete Main
Default : Да
Forced : Нет
Аудио #2
Идентификатор : 3
Формат : FLAC
Формат/Информация : Free Lossless Audio Codec
Идентификатор кодека : A_FLAC
Продолжительность : 1 ч. 40 м.
Вид битрейта : Переменный
Битрейт : 352 Кбит/сек
Каналы : 2 канала
ChannelLayout : L R
Частота : 48,0 КГц
Частота кадров : 10,417 кадров/сек (4608 SPF)
Битовая глубина : 16 бит
Метод сжатия : Без потерь
Размер потока : 252 Мбайт (1%)
Библиотека кодирования : Lavf58.20.100
Язык : English
Default : Нет
Forced : Нет
Аудио #3
Идентификатор : 4
Формат : FLAC
Формат/Информация : Free Lossless Audio Codec
Идентификатор кодека : A_FLAC
Продолжительность : 1 ч. 40 м.
Вид битрейта : Переменный
Битрейт : 340 Кбит/сек
Каналы : 2 канала
ChannelLayout : L R
Частота : 48,0 КГц
Частота кадров : 10,417 кадров/сек (4608 SPF)
Битовая глубина : 16 бит
Метод сжатия : Без потерь
Размер потока : 244 Мбайт (1%)
Библиотека кодирования : Lavf58.20.100
Язык : Italian
Default : Нет
Forced : Нет
Текст #1
Идентификатор : 5
Формат : PGS
Режим смешивания : zlib
Идентификатор кодека : S_HDMV/PGS
Идентификатор кодека/Информация : Picture based subtitle format used on BDs/HD-DVDs
Продолжительность : 1 ч. 38 м.
Битрейт : 14,0 Кбит/сек
ElementCount : 1582
Размер потока : 9,88 Мбайт (0%)
Язык : English
Default : Нет
Forced : Нет
Текст #2
Идентификатор : 6
Формат : PGS
Режим смешивания : zlib
Идентификатор кодека : S_HDMV/PGS
Идентификатор кодека/Информация : Picture based subtitle format used on BDs/HD-DVDs
Продолжительность : 1 ч. 39 м.
Битрейт : 13,4 Кбит/сек
ElementCount : 935
Размер потока : 9,59 Мбайт (0%)
Заголовок : Fact Track
Язык : English
Default : Нет
Forced : Нет
Текст #3
Идентификатор : 7
Формат : UTF-8
Идентификатор кодека : S_TEXT/UTF8
Идентификатор кодека/Информация : UTF-8 Plain Text
Продолжительность : 1 ч. 38 м.
Битрейт : 33 бит/сек
ElementCount : 801
Размер потока : 24,1 Кбайт (0%)
Язык : English
Default : Нет
Forced : Нет
Текст #4
Идентификатор : 8
Формат : UTF-8
Идентификатор кодека : S_TEXT/UTF8
Идентификатор кодека/Информация : UTF-8 Plain Text
Продолжительность : 1 ч. 39 м.
Битрейт : 33 бит/сек
ElementCount : 468
Размер потока : 24,5 Кбайт (0%)
Заголовок : Fact Track
Язык : English
Default : Нет
Forced : Нет
Меню
00:00:00.000 : :Глава 01
00:14:50.916 : :Глава 02
00:39:05.000 : :Глава 03
00:57:18.583 : :Глава 04
01:14:56.708 : :Глава 05
01:30:25.708 : :Глава 06
01:39:03.666 : :Глава 07
Ремуксы не храню! Они на вашей совести!
Не забывайте говорить Спасибо. Не уходите с раздачи!   
Торрент: Зарегистрирован [13 ноя 2019, 20:15]
Статус:
Проверен
 
.torrent скачан: 0 раз
Хэш: 64fbe0283b0a68d73296f8756082095aa6ff33ca
Размер: 21.61 ГБ (23 199 132 121 байт)
   Стать Автором раздачи
   
Цитата
  • Похожие торренты
    Ответы
    Просмотры
    Последнее сообщение

Вернуться в Грайндхаус

Кто сейчас на конференции

Сейчас эту тему просматривают: нет зарегистрированных пользователей и гости: 1