Ивановы-Ивановы [S04] (2019) SATRip от Files-x

 Статистика раздачи 
Размер: 4.09 ГБ   |  Зарегистрирован: 28 ноя 2019, 16:53   |   .torrent скачан: 2139 раз
Сидеров: 564  [ 0 байт/сек ]     Личеров: 752  [ 0 байт/сек ]  
  
Аватара пользователя
 
Раздал: 311.05 МБ
Скачал: 1.9 ГБ
Ратио: 0.160
Сообщения: 252584
Стаж: 9 лет 5 месяцев 20 дней
Откуда: Rossiya
СообщениеДобавлено: 28 ноя 2019, 16:53


Информация о фильме
Оригинальное название: Ивановы-Ивановы
Год выхода: 2019
Жанр: Комедия
Режиссер: Фёдор Стуков
В ролях: Михаил Трухин, Сергей Бурунов, Семён Трескунов, Александра Флоринская, Анна Уколова, Алексей Лукин, Юрий Ицков, Елизавета Арзамасова, Василина Юсковец, Юлия Подозёрова, Юлия Сулес, Ирина Ракшина, Александр Обласов, Грант Тохатян, Виктория Маслова, Виктория Клинкова, Алексей Розин, Валерий Панков, Артём Федотов

О фильме:
В новом сезоне, девиз которого «Каждый сам за себя», герои в исполнении Сергея Бурунова, Михаила Трухина, Анны Уколовой, Александры Флоринской, Семёна Трескунова и Алексея Лукина, строят не только семейные отношения, но и амбициозные карьерные планы. Так, Полина и Лида открывают собственный бутик, Лёша распахнёт двери своего зоопарка, Данила станет управляющим автосалона, заменив отца, а Антон тем временем создаёт интернет-магазин.



Страна: Россия
Студия: PICK UP FILM по заказу телеканала СТС
Продолжительность: 14 х 00:25:00
Перевод: Не требуется

Файл
Кодек: XviD
Качество: SATRip
Видео: XviD, ~ 1486 Кбит/с, 720x400, 25 кадр/с
Звук: AC3, 2 ch, 192 Кбит/с


General
Complete name : C:62.Ивановы-Ивановы.s04.E01.(2019).SATRip.by.Nicodem.Files-x.avi
Format : AVI
Format/Info : Audio Video Interleave
File size : 299 MiB
Duration : 24mn 47s
Overall bit rate : 1 688 Kbps
Writing application : VirtualDubMod 1.5.10.3 | www.virtualdub-fr.org || (build 2550/release)
Writing library : VirtualDubMod build 2550/release

Video
ID : 0
Format : MPEG-4 Visual
Format profile : Advanced Simple@L5
Format settings, BVOP : 1
Format settings, QPel : No
Format settings, GMC : No warppoints
Format settings, Matrix : Custom
Codec ID : XVID
Codec ID/Hint : XviD
Duration : 24mn 47s
Bit rate : 1 486 Kbps
Width : 720 pixels
Height : 400 pixels
Display aspect ratio : 16:9
Frame rate : 25.000 fps
Color space : YUV
Chroma subsampling : 4:2:0
Bit depth : 8 bits
Scan type : Progressive
Compression mode : Lossy
Bits/(Pixel*Frame) : 0.206
Stream size : 263 MiB (88%)
Writing library : XviD 73

Audio
ID : 1
Format : AC-3
Format/Info : Audio Coding 3
Mode extension : CM (complete main)
Codec ID : 2000
Duration : 24mn 47s
Bit rate mode : Constant
Bit rate : 192 Kbps
Channel(s) : 2 channels
Channel positions : Front: L R
Sampling rate : 48.0 KHz
Bit depth : 16 bits
Compression mode : Lossy
Stream size : 34.0 MiB (11%)
Alignment : Split accross interleaves
Interleave, duration : 40 ms (1.00 video frame)
Interleave, preload duration : 500 ms
Раздача ведётся путём добавления новых серий, при каждом добавлении создаётся новый торрент. Чтобы начать докачку новой серии, пользователям необходимо сделать следующее:

- Остановить скачивание.
- Удалить старый торрент у себя из клиента (старые серии удалять не надо).
- Скачать новый торрент и запустить его у себя в клиенте вместо старого, при этом указать клиенту путь в старую папку куда и должно происходить скачивание новых серий.

Ваш клиент при этом должен произвести хеширование (проверку) старой папки (если не производит сам - помогите ему сделать это), и будет докачивать только те серии которых у вас ещё нет. Старые серии при этом не удаляются, а продолжают раздаваться!
Если вы уже удалили старые серии, то предотвратить повторную закачку старых серий можно, отжав галочку в соответствующих местах при запуске нового торрента. По возможности, желательно не удалять старые серии как можно дольше, чтобы релизер не столько продолжал раздавать старые серии, а смог сконцентрироваться на новых.

Релиз от:
Не забывайте говорить Спасибо. Не уходите с раздачи!   
Торрент: Зарегистрирован [28 ноя 2019, 16:53]
Статус:
Проверен
 
.torrent скачан: 2139 раз
Хэш: 9cab11e3d304e0f3a91f9b6d0a8ff37f9c255ab6
Размер: 4.09 ГБ (4 390 993 920 байт)
   Стать Автором раздачи
   
Цитата
  • Похожие торренты
    Ответы
    Просмотры
    Последнее сообщение

Вернуться в Ивановы-Ивановы

Кто сейчас на конференции

Сейчас эту тему просматривают: нет зарегистрированных пользователей и гости: 1