(IDM, Abstract, Future Jazz, Hip Hop, Experimental) [24/96] Flying Lotus - Until the Quiet Comes - 2012, FLAC (tracks), lossless

 Статистика раздачи 
Размер: 963.42 МБ   |  Зарегистрирован: 19 янв 2013, 11:12   |   .torrent скачан: 0 раз
Сидеров: 0  [ 0 байт/сек ]     Личеров: 0  [ 0 байт/сек ]  
  
Аватара пользователя
Главный редактор
Главный редактор
 
Раздал: 90.01 ТБ
Скачал: 3.78 ТБ
Ратио: 24.248
Сообщения: 282476
Стаж: 9 лет 3 месяца
Откуда: Санкт-Петербург

Flying Lotus - Until the Quiet Comes
Жанр: IDM, Abstract, Future Jazz, Hip Hop, Experimental
Год выпуска: 2012
Лейбл: Warp Records
Страна-производитель: UK & Europe
Аудио кодек: FLAC
Тип рипа: tracks
Формат записи: 24/96
Формат раздачи: 24/96
Продолжительность: 00:46:53
Треклист:
A1. All In
A2. Getting There (feat. Niki Randa)
A3. Until The Colours Come
A4. Heave(n)
A5. Tiny Tortures
A6. All The Secrets
B1. Sultan's Request
B2. Putty Boy Strout
B3. See Thru U (feat. Erykah Badu)
B4. Until The Quiet Comes
B5. DMT Song (feat. Thundercat)
C1. The Nightcaller
C2. Only If You Wanna
C3. Electric Candyman (feat. Thom Yorke)
C4. Hunger (feat. Niki Randa]
D1. Phantasm (feat. Laura Darlington)
D2. Me Yesterday//Corded
D3. Dream To Me
Автор оцифровки: m00tc0w/censorsensor, what.cd
Код класса состояния винила: Mint
Устройство воспроизведения: Technics 1200 MK3
Головка звукоснимателя: Grado Prestige Series Gold 1
Предварительный усилитель: Pro-Ject Tube Box SE II
АЦП: Tascam US-144 MKII
Программа-оцифровщик: Ableton Live v8.0.4
Обработка: ClickRepair v3.6.1 (manual cleanup), Audacity v2.0.0: -0.3 db Amplification/Normalization:
B3. See Thru U (feat. Erykah Badu)

C3. Electric Candyman (feat. Thom Yorke)
B3. See Thru U (feat. Erykah Badu)

C3. Electric Candyman (feat. Thom Yorke)
B3. See Thru U (feat. Erykah Badu)

C3. Electric Candyman (feat. Thom Yorke)
: foobar2000 1.1.17 / Dynamic Range Meter 1.1.1
log date: 2013-01-19 13:52:50
--------------------------------------------------------------------------------
Analyzed: Flying Lotus / Until the Quiet Comes
--------------------------------------------------------------------------------
DR Peak RMS Duration Track
--------------------------------------------------------------------------------
DR11 -0.34 dB -14.61 dB 2:58 01-All In
DR10 -0.33 dB -12.85 dB 1:51 02-Getting There (feat. Niki Randa)
DR9 -0.29 dB -11.26 dB 1:07 03-Until The Colours Come
DR9 -0.25 dB -11.33 dB 2:21 04-Heave(n)
DR9 -0.32 dB -11.49 dB 3:05 05-Tiny Tortures
DR12 -0.25 dB -14.84 dB 1:56 06-All The Secrets
DR8 -0.32 dB -11.72 dB 1:42 07-Sultan's Request
DR10 -0.28 dB -14.60 dB 2:53 08-Putty Boy Strout
DR9 -0.29 dB -11.63 dB 2:24 09-See Thru To U (feat. Erykah Badu)
DR9 -0.27 dB -12.96 dB 2:41 10-Until the Quiet Comes
DR9 -0.30 dB -12.22 dB 1:23 11-DMT Song (feat. Thundercat)
DR10 -0.25 dB -12.48 dB 3:29 12-The Nighcaller
DR9 -0.26 dB -11.85 dB 1:43 13-Only If You Wanna
DR10 -0.31 dB -12.01 dB 3:32 14-Electric Candyman (feat. Thom Yorke)
DR9 -0.31 dB -12.25 dB 3:42 15-Hunger (feat. Niki Randa)
DR11 -0.25 dB -14.43 dB 3:49 16-Phantasm (feat. Laura Darlington)
DR9 -0.30 dB -12.76 dB 4:41 17-me Yesterday//Corded
DR9 -0.28 dB -12.51 dB 1:36 18-Dream To Me
--------------------------------------------------------------------------------
Number of tracks: 18
Official DR value: DR10
Samplerate: 96000 Hz
Channels: 2
Bits per sample: 24
Bitrate: 2845 kbps
Codec: FLAC
.
foobar2000 1.1.17 / Dynamic Range Meter 1.1.1
Number of tracks: 18
Official DR value: DR5
9. See Thru U (feat. Erykah Badu)

14. Electric Candyman (feat. Thom Yorke)
Не забывайте говорить Спасибо. Не уходите с раздачи!   
Торрент: Зарегистрирован [19 янв 2013, 11:12]
Статус:
Проверен
 
.torrent скачан: 0 раз
Хэш: 306fdcddaa403b967e37fa0136029692fecfd79a
Размер: 963.42 МБ (1 010 221 713 байт)
   Стать Автором раздачи
   
Цитата
  • Похожие торренты
    Ответы
    Просмотры
    Последнее сообщение

Вернуться в Электронная музыка (оцифровки)

Кто сейчас на конференции

Сейчас эту тему просматривают: нет зарегистрированных пользователей и гости: 1