(Electronic, Classical, Folk, World, & Country) [LP] [1/5.6 Mhz] Dead Can Dance - The Serpent's Egg - 1988, DSD128 (image+.cue)

 Статистика раздачи 
Размер: 2.83 ГБ   |  Зарегистрирован: 29 дек 2014, 17:17   |   .torrent скачан: 0 раз
Сидеров: 0  [ 0 байт/сек ]     Личеров: 0  [ 0 байт/сек ]  
  
Аватара пользователя
Главный редактор
Главный редактор
 
Раздал: 90.01 ТБ
Скачал: 3.78 ТБ
Ратио: 24.248
Сообщения: 281990
Стаж: 9 лет 2 месяца 24 дня
Откуда: Санкт-Петербург

Dead Can Dance
The Serpent's Egg
Жанр: Electronic, Classical, Folk, World, & Country
Носитель: LP
Год выпуска: 1988
Лейбл: 4AD CAD 808
Страна-производитель: UK
Аудио кодек: DSD128
Тип рипа: image+.cue
Формат записи: 1/5.6 Mhz
Формат раздачи: 1/5.6 Mhz
Продолжительность: 00:35:54
Треклист:
01. The Host Of Seraphim (6:14)
02. Orbis De Ignis (1:37)
03. Severance (3:21)
04. The Writing On My Father's Hand (3:49)
05. In The Kingdom Of The Blind The One-Eyed Are Kings (4:08)
06. Chant Of The Paladin (3:47)
07. Song Of Sophia (1:25)
08. Echolalia (1:17)
09. Mother Tongue (5:13)
10. Ullyses (5:03)
Источник оцифровки: автором раздачи
Код класса состояния винила: Ex
Устройство воспроизведения: Nottingham Analogue Spacedeck
Головка звукоснимателя: Sumiko Blue Point Special Evo III
Предварительный усилитель: EAR 834P Delux
АЦП: Tascam DA-3000
Программа-оцифровщик: Tascam DA-3000
Обработка: KORG AudioGate
foobar2000 1.3.3 / Dynamic Range Meter 1.1.1
log date: 2014-12-29 20:45:41
--------------------------------------------------------------------------------
Analyzed: Dead Can Dance / The Serpent's Egg
--------------------------------------------------------------------------------
DR Peak RMS Duration Track
--------------------------------------------------------------------------------
DR10 -6.72 dB -20.47 dB 6:14 01-The Host Of Seraphim
DR11 -13.79 dB -27.70 dB 1:37 02-Orbis De Ignis
DR12 -8.62 dB -25.14 dB 3:21 03-Severance
DR13 -11.66 dB -30.35 dB 3:49 04-The Writing On My Father's Hand
DR12 -10.30 dB -26.44 dB 4:08 05-In The Kingdom Of The Blind The One-Eyed Are Kings
DR12 -7.89 dB -21.76 dB 3:47 06-Chant Of The Paladin
DR11 -13.37 dB -28.14 dB 1:25 07-Song Of Sophia
DR15 -9.42 dB -26.80 dB 1:17 08-Echolalia
DR13 -6.00 dB -20.64 dB 5:13 09-Mother Tongue
DR12 -8.20 dB -23.19 dB 5:03 10-Ullyses
--------------------------------------------------------------------------------
Number of tracks: 10
Official DR value: DR12
Samplerate: 5644800 Hz / PCM Samplerate: 88200 Hz
Channels: 2
Bits per sample: 24
Bitrate: 11290 kbps
Codec: DSD128
================================================================================
Спасибо Толику за предоставленный материал.
Не хватает всё таки возможности обработки DSD файлов
Не забывайте говорить Спасибо. Не уходите с раздачи!   
Торрент: Зарегистрирован [29 дек 2014, 17:17]
Статус:
Проверен
 
.torrent скачан: 0 раз
Хэш: 0f5709424ab82963019870d6db9f92e9e870e315
Размер: 2.83 ГБ (3 040 113 752 байт)
   Стать Автором раздачи
   
Цитата

Вернуться в Электронная музыка (оцифровки)

Кто сейчас на конференции

Сейчас эту тему просматривают: нет зарегистрированных пользователей и гости: 1