(Synth-Pop) [LP] [24/96] Depeche Mode - Delta Machine - 2013, FLAC (image+.cue), lossless

 Статистика раздачи 
Размер: 1.41 ГБ   |  Зарегистрирован: 16 апр 2017, 17:10   |   .torrent скачан: 0 раз
Сидеров: 0  [ 0 байт/сек ]     Личеров: 0  [ 0 байт/сек ]  
  
Аватара пользователя
Главный редактор
Главный редактор
 
Раздал: 90.01 ТБ
Скачал: 3.78 ТБ
Ратио: 24.248
Сообщения: 282476
Стаж: 9 лет 3 месяца
Откуда: Санкт-Петербург

Depeche Mode - Delta Machine
Жанр: Synth-Pop
Носитель: LP
Год выпуска: 2013
Лейбл: Mute - 88765460631
Страна-производитель: EU
Аудио кодек: FLAC
Тип рипа: image+.cue
Формат записи: 24/96
Формат раздачи: 24/96
Продолжительность: 01:14:50
Треклист:
01. Welcome To My World
02. Angel
03. Heaven
04. Secret To The End
05. My Little Universe
06. Slow
07. Broken
08. The Child Inside
09. Soft Touch/Raw Nerve
10. Should Be Higher
11. Alone
12. Soothe My Soul
13. Goodbye
Extra (Side D):
14. Long Time Lie
15. Happens All The Time
16. Always
17. All That's Mine
Источник оцифровки: автором раздачи
Код класса состояния винила: Mint
Устройство воспроизведения: Rega RP8
Головка звукоснимателя: Rega Exact
Предварительный усилитель: Pro-ject Tube Box DS2
АЦП: RME Babyface Pro
Программа-оцифровщик: Audacity
Обработка: Normalized (iZotope)
PERFORMER "Depeche Mode"
TITLE "Delta Machine"
FILE "Depeche Mode - Delta Machine.flac" FLAC
TRACK 01 AUDIO
TITLE "Welcome To My World"
PERFORMER "Depeche Mode"
INDEX 01 00:00:00
TRACK 02 AUDIO
TITLE "Angel"
PERFORMER "Depeche Mode"
INDEX 01 04:53:75
TRACK 03 AUDIO
TITLE "Heaven"
PERFORMER "Depeche Mode"
INDEX 01 08:50:25
TRACK 04 AUDIO
TITLE "Secret To The End"
PERFORMER "Depeche Mode"
INDEX 01 12:54:00
TRACK 05 AUDIO
TITLE "My Little Universe"
PERFORMER "Depeche Mode"
INDEX 01 18:05:50
TRACK 06 AUDIO
TITLE "Slow"
PERFORMER "Depeche Mode"
INDEX 01 22:29:35
TRACK 07 AUDIO
TITLE "Broken"
PERFORMER "Depeche Mode"
INDEX 01 26:13:00
TRACK 08 AUDIO
TITLE "The Child Inside"
PERFORMER "Depeche Mode"
INDEX 01 30:09:35
TRACK 09 AUDIO
TITLE "Soft Touch/Raw Nerve"
PERFORMER "Depeche Mode"
INDEX 01 34:23:65
TRACK 10 AUDIO
TITLE "Should Be Higher"
PERFORMER "Depeche Mode"
INDEX 01 37:49:50
TRACK 11 AUDIO
TITLE "Alone"
PERFORMER "Depeche Mode"
INDEX 01 42:52:00
TRACK 12 AUDIO
TITLE "Soothe My Soul"
PERFORMER "Depeche Mode"
INDEX 01 47:19:94
TRACK 13 AUDIO
TITLE "Goodbye"
PERFORMER "Depeche Mode"
INDEX 01 52:40:00
TRACK 14 AUDIO
TITLE "Long Time Lie"
PERFORMER "Depeche Mode"
INDEX 01 57:44:80
TRACK 15 AUDIO
TITLE "Happens All The Time"
PERFORMER "Depeche Mode"
INDEX 01 62:05:40
TRACK 16 AUDIO
TITLE "Always"
PERFORMER "Depeche Mode"
INDEX 01 66:23:90
TRACK 17 AUDIO
TITLE "All That's Mine"
PERFORMER "Depeche Mode"
INDEX 01 71:29:25
Не забывайте говорить Спасибо. Не уходите с раздачи!   
Торрент: Зарегистрирован [16 апр 2017, 17:10]
Статус:
Проверен
 
.torrent скачан: 0 раз
Хэш: 60d47740381ce73332aae62d4e23f0b20356d4a0
Размер: 1.41 ГБ (1 512 443 546 байт)
   Стать Автором раздачи
   
Цитата

Вернуться в Электронная музыка (оцифровки)

Кто сейчас на конференции

Сейчас эту тему просматривают: нет зарегистрированных пользователей и гости: 1