(Modern Classical) [2LP] [24/96] Dead Can Dance - Into The Labyrinth - 1993, FLAC (tracks+.cue)

 Статистика раздачи 
Размер: 1.34 ГБ   |  Зарегистрирован: 13 май 2017, 16:53   |   .torrent скачан: 0 раз
Сидеров: 0  [ 0 байт/сек ]     Личеров: 0  [ 0 байт/сек ]  
  
Аватара пользователя
Главный редактор
Главный редактор
 
Раздал: 90.01 ТБ
Скачал: 3.78 ТБ
Ратио: 24.248
Сообщения: 282576
Стаж: 9 лет 3 месяца 2 дня
Откуда: Санкт-Петербург

Dead Can Dance - Into The Labyrinth
Жанр: Modern Classical
Носитель: 2LP
Год выпуска: 1993
Лейбл: 4AD - DAD 3013
Страна-производитель: UK
Аудио кодек: FLAC
Тип рипа: tracks+.cue
Формат записи: 32/96
Формат раздачи: 24/96
Продолжительность: 01:05:34
Side 1
A1 - Yulunga (Spirit Dance) 6:56
Written-By - Dead Can Dance
A2 - The Ubiquitous Mr Lovegrove 6:16
Written-By - Dead Can Dance
A3 - The Wind That Shakes The Barley 2:50
Arranged By [Traditional Arrangement] - Dead Can Dance
Words By, Music By - Dr Robert Dwyer Joyce

Side 2
B1 - The Carnival Is Over 5:28
Written-By - Dead Can Dance
B2 - Ariadne 1:54
Written-By - Dead Can Dance
B3 - Saldek 1:07
Written-By - Dead Can Dance
B4 - Towards The Within 7:06
Written-By - Dead Can Dance
Side 3
C1 - Bird 5:00
Written-By - Dead Can Dance
C2 - Tell Me About The Forest (You Once Called Home) 5:42
Written-By - Dead Can Dance
C3 - The Spider's Stratagem 6:42
Written-By - Dead Can Dance
Side 4
D1 - Spirit 4:59
Written-By - Dead Can Dance
D2 - Emmeleia 2:04
Written-By - Dead Can Dance
D3 - How Fortunate The Man With None 9:15
Music By - Dead Can Dance
Translated By [Words] - John Willett
Words By - Bertolt Brecht
Companies, etc.
Engineered At - Quivvy Church
Produced At - Quivvy Church
Copyright (c) - Beggars Banquet Music Ltd.
Copyright (c) - Momentum Music Ltd.
Copyright (c) - Stefan S. Brecht
Phonographic Copyright (p) - 4AD
Copyright (c) - 4AD
Mastered At - Copymasters
Pressed By - MPO
Credits
Design - Brendan Perry, Chris Bigg
Engineer, Producer - Brendan Perry
Mastered By - Miles
Performer - Brendan Perry, Lisa Gerrard
Photography By [Front Cover Image] - Touhami Ennadre
Photography By [Inside Images] - Ken Kavanagh
Set Designer [Stage Set] - John Sherwin
Notes
©1993 Beggars Banquet Music Ltd./Momentum Music Ltd. except "How Fortunate The Man With None" ©Beggars Banquet Music Ltd./Stefan S. Brecht/Momentum Music Ltd.
Made in England.
℗&© 1993 4AD except tracks Bird & Spirit ℗1990 ©1993 4AD
Front cover image "Hands Of The World" copyright by Touhami Ennadre.
Manufactured in England
"The Wind That Shakes The Barley" is dedicated to the memory of Maureen Copper.
"How Fortunate The Man With None"
© 1940, 1968, 1980 Brecht Music Co.
© 1993 Brecht Music Co/Beggars Banquet Music Ltd.
Printed inner sleeves contain lyrics, etc.
Timings taken from CD version.
Tracks "Bird" and "Spirit" (from the "A Passage In Time" compilation, previously released) are on LP and SACD releases only.
Barcode and Other Identifiers
Barcode: 5 014436 301315 >
Matrix / Runout (Side A, Etchings): MPO DAD 3013 A1 COPYMASTERS.Miles.
Matrix / Runout (Side B, Etchings): MPO DAD 3013 B1 COPYMASTERS.Miles.
Matrix / Runout (Side C, Etchings): MPO DAD 3013 C1 COPYMASTERS.Miles.
Matrix / Runout (Side D, Etchings): MPO DAD 3013 D1 COPYMASTERS.Miles.
Источник оцифровки: третьим лицом
Код класса состояния винила: Ex
Устройство воспроизведения: Clearaudio Champion Level II
Головка звукоснимателя: Ortofon Virtus
Предварительный усилитель: Pro-Ject Phono Box RS
АЦП: RME Fireface UC
Программа-оцифровщик: Adobe Audition CS 5.5
Обработка: Light de-Clicking with iZotope RX Advanced v2.02
Доп. информация:
———————————————————————————————-
Analyzed folder: /96kDCD_InThLab/96k Dead Can Dance - Into The Labyrinth
———————————————————————————————-
DR Peak RMS Filename
———————————————————————————————-
DR13 -0.70 dB -17.80 dB A1 Yulunga (Spirit Dance).wav
DR12 -0.91 dB -15.67 dB A2 The Ubiquitous Mr. Lovegrove.wav
DR13 -4.77 dB -24.43 dB A3 The Wind That Shakes The Barley.wav
DR11 -0.24 dB -14.64 dB B1 The Carnival Is Over.wav
DR12 -0.33 dB -15.10 dB B2 Ariadne.wav
DR14 -1.87 dB -18.30 dB B3 Saldek.wav
DR12 -1.57 dB -16.20 dB B4 Towards The Within.wav
DR13 -2.74 dB -17.79 dB C1 Bird.wav
DR13 -0.26 dB -15.95 dB C2 Tell Me About The Forest (You Once Called Home).wav
DR13 -0.30 dB -15.51 dB C3 The Spider’s Stratagem.wav
DR13 -0.52 dB -15.98 dB D1 Spirit.wav
DR11 -0.88 dB -15.24 dB D2 Emmeleia.wav
DR12 -1.98 dB -16.63 dB D3 How Fortunate The Man With None.wav
———————————————————————————————-
Number of files: 13
Official DR value: DR12
==============================================================================================
Не забывайте говорить Спасибо. Не уходите с раздачи!   
Торрент: Зарегистрирован [13 май 2017, 16:53]
Статус:
Проверен
 
.torrent скачан: 0 раз
Хэш: a00e802afd5c087713473ddb050ff1ccdf85a8f8
Размер: 1.34 ГБ (1 443 772 160 байт)
   Стать Автором раздачи
   
Цитата
  • Похожие торренты
    Ответы
    Просмотры
    Последнее сообщение

Вернуться в Электронная музыка (оцифровки)

Кто сейчас на конференции

Сейчас эту тему просматривают: нет зарегистрированных пользователей и гости: 1