(Modern Classical, Medieval) [LP] [24/96] Dead Can Dance - Aion - 1990, FLAC (tracks+.cue)

 Статистика раздачи 
Размер: 765.67 МБ   |  Зарегистрирован: 11 май 2017, 15:11   |   .torrent скачан: 0 раз
Сидеров: 0  [ 0 байт/сек ]     Личеров: 0  [ 0 байт/сек ]  
  
Аватара пользователя
Главный редактор
Главный редактор
 
Раздал: 90.01 ТБ
Скачал: 3.78 ТБ
Ратио: 24.248
Сообщения: 281933
Стаж: 9 лет 2 месяца 23 дня
Откуда: Санкт-Петербург

Dead Can Dance - Aion
Жанр: Modern Classical, Medieval
Носитель: LP
Год выпуска: 1990
Лейбл: 4AD - RTD 158, Rough Trade - RTD 158
Страна-производитель: Germany
Аудио кодек: FLAC
Тип рипа: tracks+.cue
Формат записи: 24/96
Формат раздачи: 24/96
Продолжительность: 00:36:19
Side 1
A1 - The Arrival And The Reunion 1:39
Vocals - David Navarro Sust
A2 - Saltarello 2:34
Arranged By [Co-arranged By] - John Bonnar
Written-By [Instrumental Danse] - Anonymous • Italian 14th Century

A3 - Mephisto 0:54
A4 - The Song Of The Sybil 3:45
Written-By - Traditional Version • Catalan • 16th Century
A5 - Fortune Presents Gifts Not According To The Book 6:03
Keyboards, Arranged By [Co-arranged By] - John Bonnar
Words By - Luis De Góngora

A6 - As The Bell Rings The Maypole Spins 5:16
Bagpipes - Robert Perry
Side 2
B1 - The End Of Words 2:05
Vocals - David Navarro Sust
B2 - Black Sun 4:56
B3 - Wilderness 1:24
B4 - The Promised Womb 3:23
Viol [Bass] - Andrew Robinson, Anne Robinson
Viol [Tenor] - Honor Carmody, Lucy Robinson

B5 - The Garden Of Zephirus 1:18
B6 - Radharc 2:48
Companies, etc.
Distributed By - Rough Trade Records GmbH - L1 - 361
Copyright (c) - 4AD
Published By - Beggars Banquet Music Ltd.
Published By - Momentum Music Ltd.
Marketed By - Rough Trade Records GmbH
Phonographic Copyright (p) - Rough Trade Records GmbH
Recorded At - Woodbine Studios
Produced At - Woodbine Studios
Credits
Design - Brendan Perry
Instruments [All Other], Voice - Brendan Perry, Lisa Gerrard
Lacquer Cut By - G. Pauler
Painting [Detail] - Hieronymus Bosch
Producer - Dead Can Dance
Written-By - Dead Can Dance (tracks: A1, A3, A5 to B6)
Notes
Recorded and produced in Ireland, except track A1 & B1 recorded and produced at Woodbine Studios, Leamington Spa
"The Song Of The Sybil" dedicated to the memory of Jamie Salas
℗ 1990 4AD
© 1990 Rough Trade Records GmbH
Made in EEC
Includes a printed inner sleeve
Barcode and Other Identifiers
Barcode (Text): 4 005902 115810
Barcode (String): 4005902115810
Label Code: LC 5661
Rights Society: GEMA
Matrix / Runout (Runout Side A): RTD-158 A G. Pauler
Matrix / Runout (Runout Side B): RTD-158 A G. Pauler
Источник оцифровки: третьим лицом
Код класса состояния винила: Ex
Устройство воспроизведения: Vintage (1982) Yamaha PX-3
Головка звукоснимателя: Sumiko Black Bird
Предварительный усилитель: Pro-Ject Phono Box RS
АЦП: RME Fireface UC
Программа-оцифровщик: Adobe Audition CS 5.5
Обработка: Super light de-clicking with iZotope RX 4
Доп. информация:
———————————————————————————————-
Analyzed folder: /96k Dead Can Dance - Aion
———————————————————————————————-
DR Peak RMS Filename
———————————————————————————————-
DR13 -0.97 dB -17.69 dB A1 The Arrival And The Reunion.aif
DR12 -0.61 dB -14.39 dB A2 Saltarello.aif
DR11 -7.09 dB -23.38 dB A3 Mephisto.aif
DR11 -1.52 dB -16.13 dB A4 The Song Of The Sybil.aif
DR10 -3.58 dB -18.08 dB A5 Fortune Presents Gifts Not According To The Book.aif
DR12 -2.76 dB -17.14 dB A6 As The Bell Rings The Maypole Spins.aif
DR11 -2.84 dB -16.61 dB B1 The End Of Words.aif
DR11 -0.62 dB -13.23 dB B2 Black Sun.aif
DR9 -5.45 dB -19.01 dB B3 Wilderness.aif
DR11 -2.80 dB -17.70 dB B4 The Promised Womb.aif
DR11 -11.92 dB -26.13 dB B5 The Garden Of Zephirus.aif
DR11 -1.55 dB -15.52 dB B6 Radharc.aif
———————————————————————————————-
Number of files: 12
Official DR value: DR11
==============================================================================================
Не забывайте говорить Спасибо. Не уходите с раздачи!   
Торрент: Зарегистрирован [11 май 2017, 15:11]
Статус:
Проверен
 
.torrent скачан: 0 раз
Хэш: 3bb2ceedae4e6b323e9972369684ff6dc0a80570
Размер: 765.67 МБ (802 865 789 байт)
   Стать Автором раздачи
   
Цитата

Вернуться в Электронная музыка (оцифровки)

Кто сейчас на конференции

Сейчас эту тему просматривают: нет зарегистрированных пользователей и гости: 1