(Electronic) [LP] [24/96] Kraftwerk - Radio-Activity - 1975, FLAC (tracks+.cue)

 Статистика раздачи 
Размер: 767.74 МБ   |  Зарегистрирован: 18 сен 2011, 13:28   |   .torrent скачан: 0 раз
Сидеров: 0  [ 0 байт/сек ]     Личеров: 0  [ 0 байт/сек ]  
  
Аватара пользователя
Главный редактор
Главный редактор
 
Раздал: 90.01 ТБ
Скачал: 3.78 ТБ
Ратио: 24.248
Сообщения: 282526
Стаж: 9 лет 3 месяца 1 день
Откуда: Санкт-Петербург

Kraftwerk
Radio-ActivityЖанр: Electronic
Год выпуска: 1975
Лейбл: Horzu
Страна-производитель: Germany
Аудио кодек: FLAC
Тип рипа: tracks+.cue
Формат записи: 32/192
Формат раздачи: 24/96
Продолжительность: 00:37:47
Треклист:
A1. Geigerzahler [00:01:07]
A2. Radioaktivitat [00:06:40]
A3. Radioland [00:05:51]
A4. Atherwellen [00:04:40]
A5. Sendepause [00:00:39]
A6. Nachrichten [00:01:19]
B1. Die Stimme Der Energie [00:00:55]
B2. Antenne [00:03:44]
B3. Radio Sterne [00:03:38]
B4. Uran [00:01:19]
B5. Transistor [00:02:14]
B6. Ohm Sweet Ohm [00:05:37]
Источник оцифровки: PBTHAL VINYL RIPS
Код класса состояния винила: VG+
Устройство воспроизведения: VPI Scoutmaster Trans-Fi Termninator
Audio-Technica AT33PTG/II
Предварительный усилитель: Marantz 2220B
АЦП: E-MU 1212
Программа-оцифровщик: Adobe Audition 3.01
Обработка: Run thru ClickRepair at level 10 with
Pitch Protection | on; Reverse | on; Wavelet | x2
Resample to 96khz in Izotope Rx2 using the default preset
Manually listen to album in Adobe Audition cleaning any clicks/anomalies
Flac with Xrecode II
02,03 - композиции
02,03 - композиции
Код: Выделить всё
--------------------------------------------------------------------------------
Analyzed: Kraftwerk / Radio-Aktivität
--------------------------------------------------------------------------------
DR         Peak         RMS     Duration Track
--------------------------------------------------------------------------------
DR17      -5.77 dB   -26.18 dB      1:07 01-Geigerz├ñhler
DR11      -1.51 dB   -15.43 dB      6:40 02-Radioaktivit├ñt
DR11      -3.46 dB   -18.88 dB      5:51 03-Radioland
DR11      -0.70 dB   -13.89 dB      4:40 04-├ätherwellen
DR7       -9.23 dB   -24.19 dB      0:39 05-Sendepause
DR12      -3.31 dB   -20.95 dB      1:19 06-Nachrichten
DR10     -12.30 dB   -27.36 dB      0:55 07-Die Stimme Der Energie
DR12      -0.70 dB   -15.15 dB      3:44 08-Antenne
DR11      -3.11 dB   -18.51 dB      3:38 09-Radio Sterne
DR11      -3.99 dB   -17.89 dB      1:19 10-Uran
DR10      -3.44 dB   -15.55 dB      2:14 11-Transistor
DR11      -2.41 dB   -17.65 dB      5:37 12-Ohm Sweet Ohm
--------------------------------------------------------------------------------
Number of tracks:  12
Official DR value: DR11
Samplerate:        96000 Hz
Channels:          2
Bits per sample:   24
Bitrate:           2702 kbps
Codec:             FLAC
================================================================================
Не забывайте говорить Спасибо. Не уходите с раздачи!   
Торрент: Зарегистрирован [18 сен 2011, 13:28]
Статус:
Проверен
 
.torrent скачан: 0 раз
Хэш: 67e93e58bb0e158f593db63c1cc331c527a1520a
Размер: 767.74 МБ (805 032 652 байт)
   Стать Автором раздачи
   
Цитата

Вернуться в Электронная музыка (оцифровки)

Кто сейчас на конференции

Сейчас эту тему просматривают: нет зарегистрированных пользователей и гости: 1