(Punk/Hardcore) [MC][16/44.1] Пурген - Мертвый Президент - 1997, FLAC (image+.cue)

 Статистика раздачи 
Размер: 328.14 МБ   |  Зарегистрирован: 04 май 2012, 11:51   |   .torrent скачан: 0 раз
Сидеров: 0  [ 0 байт/сек ]     Личеров: 0  [ 0 байт/сек ]  
  
Аватара пользователя
Главный редактор
Главный редактор
 
Раздал: 90.01 ТБ
Скачал: 3.78 ТБ
Ратио: 24.248
Сообщения: 284987
Стаж: 9 лет 3 месяца 22 дня
Откуда: Санкт-Петербург

Пурген - Мертвый Президент
Жанр: Punk/Hardcore
Год выпуска: 1997
Лейбл: Союз/КТР
Номер по каталогу: SZ 0728-97
Страна-производитель: Россия
Аудио кодек: FLAC
Тип рипа: image+.cue
Формат записи: 32/48.0 (WAV)
Формат раздачи: 16/44.1 (FLAC)
Продолжительность: 50:18
Источник (релизер): Собственный рип с кассеты
Наличие сканов в содержимом раздачи: да
Источник оцифровки: автором раздачи
Код класса состояния кассеты: VG
Устройство воспроизведения: Philips AW569
АЦП: Realtek High Definition Audio, In-Line 5.1
Программа-оцифровщик: Adobe Audition CS5.5
Обработка: Никакой
Запись: Запись на болванку и после рип в лося (.FLAC)
01. Работэйшн полый диградэйшн
02. Панк эйфория
03. Мертвый президент
04. Индустрия смерти
05. Атомная романтика
06. Помойки из людей
07. Военные ублюдки
08. Почему не я
09. Любовь убивает
10. Всё вокруг меня без смысла
11. Все люди Чекатилы
12. Тело человека
13. Не голосуй!
14. Майданек
15. Мечты ребенка
16. Эвтаназия
17. Дохлая музыка
18. Я настоящий человек
19. Трансплантация мировоззрения
Exact Audio Copy V1.0 beta 3 from 29. August 2011
Archivo Log de extracciones desde 4. Mayo 2012, 10:00
Purgen / Myortvyi Pryezidyent
Usar unidad : HL-DT-STDVD-RAM GH22NP20 Adapter: 0 ID: 0
Modo de Lectura : : Seguro
Utilizar corriente precisa : Sí
Caché de audio por defecto : Sí
Utilizar los punteros C2 : No
Corrección de Desplazamiento de Lectura : : 0
Sobreleer tanto en Lead-In como en Lead-Out : No
Rellenar las muestras faltantes con silencios : Sí
Eliminar silencios inicial y final : No
Muestras nulas usadas en los calculos de CRC : Sí
Interfaz usada : Interfaz propio de Win32 para Windowns NT y 2000
Formato de Salida utilizado : : Compresor definido por el Usuario
Velocidad de bits seleccionada : 768 kBit/s
Calidad : Alta
Añadir ID3 tag : No
linea de comandos del compresor : C:\Program Files\Exact Audio Copy\FLAC\FLAC.EXE
Opciones adicionales en línea de comandos : : -V -8 -T "Date=%year%" -T "Genre=%genre%" %source%
TOC extraídos del CD
Pista | Inicio | Longitud | Inicio del sector | Fin del sector
------------------------------------------------------------------
1 | 0:00.00 | 4:04.72 | 0 | 18371
2 | 4:04.72 | 3:09.21 | 18372 | 32567
3 | 7:14.18 | 2:54.55 | 32568 | 45672
4 | 10:08.73 | 2:30.39 | 45673 | 56961
5 | 12:39.37 | 1:56.51 | 56962 | 65712
6 | 14:36.13 | 3:36.37 | 65713 | 81949
7 | 18:12.50 | 2:25.40 | 81950 | 92864
8 | 20:38.15 | 1:28.04 | 92865 | 99468
9 | 22:06.19 | 2:12.27 | 99469 | 109395
10 | 24:18.46 | 1:20.62 | 109396 | 115457
11 | 25:39.33 | 4:06.08 | 115458 | 133915
12 | 29:45.41 | 2:53.38 | 133916 | 146928
13 | 32:39.04 | 1:48.48 | 146929 | 155076
14 | 34:27.52 | 2:52.40 | 155077 | 168016
15 | 37:20.17 | 3:01.42 | 168017 | 181633
16 | 40:21.59 | 3:20.38 | 181634 | 196671
17 | 43:42.22 | 1:49.04 | 196672 | 204850
18 | 45:31.26 | 1:23.16 | 204851 | 211091
19 | 46:54.42 | 3:24.21 | 211092 | 226412
Gama de estados y errores
Seleccionar gama
Nombre de Archivo N:\Musica Descargada\Purgen-President\Purgen - Myortvyi Pryezidyent.wav
Nivel Pico 100.0 %
Velocidad de extracción 2.8 X
Gama de Calidad 100.0 %
Copiar CRC 74180D8D
Copia OK
Sin Errores
Final del Informe
==== Log checksum 8CC7D65670BB2959D9794C3FF987C2AD3E2847E3AA8ED675C070056CA284009E ====
REM GENRE Punk
REM DATE 1997
REM DISCID FC0BCA13
REM COMMENT "ExactAudioCopy v1.0b3"
PERFORMER "Purgen"
TITLE "Myortvyi Pryezidyent"
FILE "Purgen - Myortvyi Pryezidyent.flac" WAVE
TRACK 01 AUDIO
TITLE "Raboteyshn Polnyi Digradeyshn (1995)"
PERFORMER "Purgen"
INDEX 01 00:00:00
TRACK 02 AUDIO
TITLE "Punk Eyforiya (1995)"
PERFORMER "Purgen"
INDEX 01 04:04:72
TRACK 03 AUDIO
TITLE "Myortvyi Pryezidyent (1995)"
PERFORMER "Purgen"
INDEX 01 07:14:18
TRACK 04 AUDIO
TITLE "Industriya Smyerti (1995)"
PERFORMER "Purgen"
INDEX 01 10:08:73
TRACK 05 AUDIO
TITLE "Atomnaya Romantika (1995)"
PERFORMER "Purgen"
INDEX 01 12:39:37
TRACK 06 AUDIO
TITLE "Pomoyki Iz Lyudyey (1993)"
PERFORMER "Purgen"
INDEX 01 14:36:13
TRACK 07 AUDIO
TITLE "Voyenniye Ublyudki (1994)"
PERFORMER "Purgen"
INDEX 01 18:12:50
TRACK 08 AUDIO
TITLE "Pochyemu Nye Ya (1995)"
PERFORMER "Purgen"
INDEX 01 20:38:15
TRACK 09 AUDIO
TITLE "Lyubov' Ubivayet (1996)"
PERFORMER "Purgen"
INDEX 01 22:06:19
TRACK 10 AUDIO
TITLE "Vsyo Vokrug Myenya Byez Smysla (1993)"
PERFORMER "Purgen"
INDEX 01 24:18:46
TRACK 11 AUDIO
TITLE "Vsye Lyudi Chikatily (1993)"
PERFORMER "Purgen"
INDEX 01 25:39:33
TRACK 12 AUDIO
TITLE "Tyelo Chyelovyeka (1992)"
PERFORMER "Purgen"
INDEX 01 29:45:41
TRACK 13 AUDIO
TITLE "Nye Golosuy (1996)"
PERFORMER "Purgen"
INDEX 01 32:39:04
TRACK 14 AUDIO
TITLE "Maydanek (1992)"
PERFORMER "Purgen"
INDEX 01 34:27:52
TRACK 15 AUDIO
TITLE "Myech'ty Ryebyonka (1996)"
PERFORMER "Purgen"
INDEX 01 37:20:17
TRACK 16 AUDIO
TITLE "Evtanaziya (1993)"
PERFORMER "Purgen"
INDEX 01 40:21:59
TRACK 17 AUDIO
TITLE "Dohlaya Muzyka (1992)"
PERFORMER "Purgen"
INDEX 01 43:42:22
TRACK 18 AUDIO
TITLE "Ya Nastoyashiy Chyelovyek (1992)"
PERFORMER "Purgen"
INDEX 01 45:31:26
TRACK 19 AUDIO
TITLE "Transplantatsiya Mirovozryeniya (1993)"
PERFORMER "Purgen"
INDEX 01 46:54:42
Доп. информация: Первый официальный сборник группы.
Изменения 07.05.2012: Добавлены некоторые данные для общего обозрения.
Не забывайте говорить Спасибо. Не уходите с раздачи!   
Торрент: Зарегистрирован [04 май 2012, 11:51]
Статус:
Проверен
 
.torrent скачан: 0 раз
Хэш: fbe8b46d7061542d3ba7020e23521dfe935cd8da
Размер: 328.14 МБ (344 075 879 байт)
   Стать Автором раздачи
   
Цитата

Вернуться в Отечественная рок-музыка (оцифровки)

Кто сейчас на конференции

Сейчас эту тему просматривают: нет зарегистрированных пользователей и гости: 1