(rock) [lp] [24/96] Чиж и Ко "Лучшие блюзы и баллады" - 1998, FLAC (sides)

 Статистика раздачи 
Размер: 846.78 МБ   |  Зарегистрирован: 13 мар 2011, 14:29   |   .torrent скачан: 0 раз
Сидеров: 0  [ 0 байт/сек ]     Личеров: 0  [ 0 байт/сек ]  
  
Аватара пользователя
Главный редактор
Главный редактор
 
Раздал: 90.01 ТБ
Скачал: 3.78 ТБ
Ратио: 24.248
Сообщения: 285975
Стаж: 9 лет 4 месяца 1 день
Откуда: Санкт-Петербург

Чиж и Ко "Лучшие блюзы и баллады"
Жанр: rock
Год выпуска: 1998
Лейбл: Solyd
Страна-производитель: РФ
Аудио кодек: FLAC
Тип рипа: sides
Формат записи: 24/96
Формат раздачи: 24/96
Продолжительность: 42
Треклист:
Сторона А
1. Перекресток (ЧИЖ) 6:56
2. О лубьви (Тарасов) 4:40
3. Поход (ЧИЖ) 3:26
4. О.К. (ЧИЖ) 4:48
Сторона Б
1. Еду,еду (ЧИЖ) 3:57
2. Мышка (Колыбельная хиппи) (ЧИЖ) 4:32
3. Hoochi-Coochi Man (ЧИЖ) 4:32
4. Ты был в этом городе первым (ЧИЖ) 5:11
5. Идиллия (А.Селюнин) 5:29
Источник оцифровки: автором раздачи
Код класса состояния винила: NM
Устройство воспроизведения: technics sl-1210mk2 / ГЗМ-128ipa
Предварительный усилитель: technics su-c800
АЦП: 0404 usb
Программа-оцифровщик: audacity
Обработка: -
Код: Выделить всё
REM GENRE Rock
REM DATE 1998
PERFORMER "Чиж & Co"
TITLE "Лучшие блюзы и баллады"
FILE "cha.flac" WAVE
  TRACK 01 AUDIO
    TITLE "Перекресток"
    PERFORMER "Чиж & Co"
    INDEX 01 00:00:00
  TRACK 02 AUDIO
    TITLE "О любви"
    PERFORMER "Чиж & Co"
    INDEX 00 07:02:00
    INDEX 01 07:04:00
  TRACK 03 AUDIO
    TITLE "Поход"
    PERFORMER "Чиж & Co"
    INDEX 00 11:40:00
    INDEX 01 11:42:00
  TRACK 04 AUDIO
    TITLE  "О.К."
    PERFORMER "Чиж & Co"
    INDEX 00 15:07:00
    INDEX 01 15:08:40
FILE "chb.flac" WAVE
  TRACK 01 AUDIO
    TITLE "Еду, еду"
    PERFORMER "Чиж & Co"
    INDEX 01 00:00:00
  TRACK 02 AUDIO
    TITLE "Мышка"
    PERFORMER "Чиж & Co"
    INDEX 00 04:02:00
    INDEX 01 04:03:40
  TRACK 03 AUDIO
    TITLE "Hoochie-coochie man"
    PERFORMER "Чиж & Co"
    INDEX 00 06:18:50
    INDEX 01 06:20:30
  TRACK 04 AUDIO
    TITLE  "Идиллия"
    PERFORMER "Чиж & Co"
    INDEX 00 16:04:00
    INDEX 01 16:05:00






Доп. информация: игла похуже, зато 24 бита. дополнение к раздаче https://rutracker.org/forum/viewtopic.php?t=3474171
игла - перебранная ГЗМ128, заменена резинка-подвес, выбронеш лишний пластик, медная вставка взята от другого картриджа.
Не забывайте говорить Спасибо. Не уходите с раздачи!   
Торрент: Зарегистрирован [13 мар 2011, 14:29]
Статус:
Проверен
 
.torrent скачан: 0 раз
Хэш: c27509268950a9be31c5a01205394e6b883accf1
Размер: 846.78 МБ (887 914 580 байт)
   Стать Автором раздачи
   
Цитата
  • Похожие торренты
    Ответы
    Просмотры
    Последнее сообщение

Вернуться в Отечественная рок-музыка (оцифровки)

Кто сейчас на конференции

Сейчас эту тему просматривают: нет зарегистрированных пользователей и гости: 1