(Indie Rock, Acoustic Rock) [LP] [24/96] Ноль - Песня о безответной любви к Родине - 1991 (2012), FLAC (image+.cue)

 Статистика раздачи 
Размер: 876.55 МБ   |  Зарегистрирован: 21 янв 2013, 13:05   |   .torrent скачан: 0 раз
Сидеров: 0  [ 0 байт/сек ]     Личеров: 0  [ 0 байт/сек ]  
  
Аватара пользователя
Главный редактор
Главный редактор
 
Раздал: 90.01 ТБ
Скачал: 3.78 ТБ
Ратио: 24.248
Сообщения: 288153
Стаж: 9 лет 5 месяцев 3 дня
Откуда: Санкт-Петербург

Ноль - Песня о безответной любви к Родине
Жанр: Indie Rock, Acoustic Rock
Год выпуска: 1991 (2012)
Лейбл: Мирумир
Страна-производитель: Россия
Аудио кодек: FLAC
Тип рипа: image+.cue
Формат записи: 24/96
Формат раздачи: 24/96
Продолжительность: 00:39:40
Треклист:
A1 Этот Русский Rock-n-Roll
A2 Ехали По Улице Трамваи
A3 Улица Ленина
A4 Цикорий
B1 Иду, Курю
B2 Песня О Настоящем Индейце
B3 Ты - Тормоз
B4 Песня О Безответной Любви К Родине
B5 Человек И Кошка
B6 Я.Л.Ю.Б.Л.Ю.Т.Е.Б.Я.
Источник оцифровки: автором раздачи
Код класса состояния винила: Mint
Устройство воспроизведения: Sansui SR-929
Головка звукоснимателя: Grado Gold
Предварительный усилитель: ф\к Никитина
АЦП: Zoom H4n
Программа-оцифровщик: Zoom H4n
Обработка: не проводилась

--------------------------------------------------------------------------------
Analyzed: Ноль / Песня О Безответной Любви К Родине
--------------------------------------------------------------------------------
DR Peak RMS Duration Track
--------------------------------------------------------------------------------
DR11 -0.61 dB -13.39 dB 5:28 01-Этот Русский Rock-n-Roll
DR11 -0.25 dB -13.93 dB 5:25 02-Ехали По Улице Трамваи
DR10 -0.13 dB -12.52 dB 5:39 03-Улица Ленина
DR11 0.00 dB -12.35 dB 3:10 04-Цикорий
DR11 -0.32 dB -14.35 dB 3:36 05-Иду, Курю
DR11 -1.68 dB -14.26 dB 4:31 06-Песня О Настоящем Индейце
DR12 0.00 dB -13.58 dB 3:25 07-Ты - Тормоз
DR10 -5.87 dB -20.03 dB 0:45 08-Песня О Безответной Любви К Родине
DR10 -1.40 dB -13.36 dB 3:57 09-Человек И Кошка
DR11 -0.76 dB -14.93 dB 3:43 10-Я.Л.Ю.Б.Л.Ю.Т.Е.Б.Я.
--------------------------------------------------------------------------------
Number of tracks: 10
Official DR value: DR11
Samplerate: 96000 Hz
Channels: 2
Bits per sample: 24
Bitrate: 3069 kbps
Codec: FLAC
================================================================================
Не забывайте говорить Спасибо. Не уходите с раздачи!   
Торрент: Зарегистрирован [21 янв 2013, 13:05]
Статус:
Проверен
 
.torrent скачан: 0 раз
Хэш: d83e2e2aedb117aee05f530e060c9cfcf3ec5db0
Размер: 876.55 МБ (919 130 046 байт)
   Стать Автором раздачи
   
Цитата

Вернуться в Отечественная рок-музыка (оцифровки)

Кто сейчас на конференции

Сейчас эту тему просматривают: нет зарегистрированных пользователей и гости: 1