(Rock) [LP] [24/192] Nautilus Pompilius (Наутилус Помпилиус) - Разлука, Князь Тишины - 1987-1989, WavPack (image+.cue)

 Статистика раздачи 
Размер: 3.09 ГБ   |  Зарегистрирован: 24 фев 2013, 11:43   |   .torrent скачан: 0 раз
Сидеров: 0  [ 0 байт/сек ]     Личеров: 0  [ 0 байт/сек ]  
  
Аватара пользователя
 
Раздал: 256.39 ГБ
Скачал: 432.89 ГБ
Ратио: 0.672
Сообщения: 213355
Стаж: 8 лет 7 месяцев 16 дней

Nautilus Pompilius (Наутилус Помпилиус) - Разлука, Князь Тишины

Жанр: Rock
Год выпуска: 1987-1989
Лейбл: ТАУ Продукт / Мелодия
Страна-производитель: Russia / USSR
Аудио кодек: WavPack
Тип рипа: image+.cue
Формат записи: 24/192
Формат раздачи: 24/192
Продолжительность: 01:16:57
Источник оцифровки: Oleg39
Класс состояния винила: NM
Устройство воспроизведения: Thorens TD124 mkII + SME 3012 Series II
Головка звукоснимателя: Clearaudio Stradivari
Предварительный усилитель: Van den Hul The Grail (Accumulator driven version)
АЦП: E-MU 0404 USB (ASIO)
Программа-оцифровщик: WaveLab 6
Обработка: Сжатие в wv - Monkey's Audio 4.01, Теги - CUEBeautifier 0.4.31.2
#77Лейбл: ТАУ Продукт
Страна-производитель: Russia
Год издания: 1993
Продолжительность: 00:39:16
Треклист:
A1. Эта музыка будет вечной (4:42)
A2. Казанова (4:24)
A3. Праздник общей беды (2:50)
A4. Взгляд с экрана (4:36)
A5. Хлоп-хлоп (4:17)
B1. Шар цвета хаки (3:01)
B2. Наша семья (3:21)
B3. Рвать ткань (3:29)
B4. Всего лишь быть (4:31)
B5. Скованные одной цепью (4:07)
REM GENRE "Rock"
REM DATE 1987
REM DISCID РИО 00013
REM COMMENT "РИО 00013, TAU Product Ltd., 1993, Апрелевка Саунд, Needledrop By Oleg39"
PERFORMER "Наутилус Помпилиус"
TITLE "Разлука"
FILE "Nautilus Pompilius - 1987 - Razluka [NLV 24-192].wv" WAVE
TRACK 01 AUDIO
TITLE "Эта музыка будет вечной"
PERFORMER "Наутилус Помпилиус"
INDEX 01 00:00:00
TRACK 02 AUDIO
TITLE "Казанова"
PERFORMER "Наутилус Помпилиус"
INDEX 01 04:42:00
TRACK 03 AUDIO
TITLE "Праздник общей беды"
PERFORMER "Наутилус Помпилиус"
INDEX 01 09:05:60
TRACK 04 AUDIO
TITLE "Взгляд с экрана"
PERFORMER "Наутилус Помпилиус"
INDEX 01 11:55:40
TRACK 05 AUDIO
TITLE "Хлоп-хлоп"
PERFORMER "Наутилус Помпилиус"
INDEX 01 16:31:53
TRACK 06 AUDIO
TITLE "Шар цвета хаки"
PERFORMER "Наутилус Помпилиус"
INDEX 01 20:48:19
TRACK 07 AUDIO
TITLE "Наша семья"
PERFORMER "Наутилус Помпилиус"
INDEX 01 23:48:61
TRACK 08 AUDIO
TITLE "Рвать ткань"
PERFORMER "Наутилус Помпилиус"
INDEX 01 27:10:00
TRACK 09 AUDIO
TITLE "Всего лишь быть"
PERFORMER "Наутилус Помпилиус"
INDEX 01 30:38:57
TRACK 10 AUDIO
TITLE "Скованные одной цепью"
PERFORMER "Наутилус Помпилиус"
INDEX 01 35:09:33
© 1987 НАУТИЛУС ПОМПИЛИУС
℗ © 1993 ТАУ ПРОДУКТ
Изготовлено в СП «Апрелевка — Саунд Инк»
#77Лейбл: Мелодия
Страна-производитель: USSR
Год издания: 1990
Продолжительность: 00:37:41
Треклист:
A1. Скованные (4:28)
A2. Князь тишины (3:42)
A3. Взгляд с экрана (4:34)
A4. Стриптиз (4:58)
B1. Доктор твоего тела (4:45)
B2. Я хочу быть с тобой (4:30)
B3. Казанова (4:11)
B4. Шар цвета хаки (2:46)
B5. Прощальное письмо (3:48)
REM GENRE "Rock"
REM DATE 1989
REM DISCID С60 27945 007
REM COMMENT "Мелодия, 1989, АОЛЗГ, Needledrop By Oleg39"
PERFORMER "Наутилус Помпилиус"
TITLE "Князь Тишины"
FILE "Nautilus Pompilius - 1989 - Knyaz' Tishiny [NLV 24-192].wv" WAVE
TRACK 01 AUDIO
TITLE "Скованные"
PERFORMER "Наутилус Помпилиус"
INDEX 01 00:00:00
TRACK 02 AUDIO
TITLE "Князь тишины"
PERFORMER "Наутилус Помпилиус"
INDEX 01 04:28:00
TRACK 03 AUDIO
TITLE "Взгляд с экрана"
PERFORMER "Наутилус Помпилиус"
INDEX 01 08:09:50
TRACK 04 AUDIO
TITLE "Стриптиз"
PERFORMER "Наутилус Помпилиус"
INDEX 01 12:43:50
TRACK 05 AUDIO
TITLE "Доктор твоего тела"
PERFORMER "Наутилус Помпилиус"
INDEX 01 17:41:27
TRACK 06 AUDIO
TITLE "Я хочу быть с тобой"
PERFORMER "Наутилус Помпилиус"
INDEX 01 22:26:38
TRACK 07 AUDIO
TITLE "Казанова"
PERFORMER "Наутилус Помпилиус"
INDEX 01 26:56:50
TRACK 08 AUDIO
TITLE "Шар цвета хаки"
PERFORMER "Наутилус Помпилиус"
INDEX 01 31:07:50
TRACK 09 AUDIO
TITLE "Прощальное письмо"
PERFORMER "Наутилус Помпилиус"
INDEX 01 33:53:36
© «МЕЛОДИЯ», 1989
Всесоюзная студия грамзаписи
Апрелевский ордена Ленина завод грампластинок
1990 Зак. 528. Тираж 50000
Не забывайте говорить Спасибо. Не уходите с раздачи!   
Торрент: Зарегистрирован [24 фев 2013, 11:43]
Статус:
Проверен
 
.torrent скачан: 0 раз
Хэш: 03c0b5469ac9fe862eb22f6637e155220cf386ec
Размер: 3.09 ГБ (3 317 854 122 байт)
   Стать Автором раздачи
   
Цитата

Вернуться в Отечественная рок-музыка (оцифровки)

Кто сейчас на конференции

Сейчас эту тему просматривают: нет зарегистрированных пользователей и гости: 1