(Rock) [MB][16/44.1] Оловянные Солдатики - Коллекция 1972-1981 - 2007, FLAC (image+.cue)

 Статистика раздачи 
Размер: 914.98 МБ   |  Зарегистрирован: 06 янв 2013, 15:47   |   .torrent скачан: 0 раз
Сидеров: 0  [ 0 байт/сек ]     Личеров: 0  [ 0 байт/сек ]  
  
Аватара пользователя
 
Раздал: 256.39 ГБ
Скачал: 432.89 ГБ
Ратио: 0.672
Сообщения: 213355
Стаж: 8 лет 7 месяцев 4 дня

Оловянные Солдатики - Коллекция 1972-1981


Жанр: Rock
Год выпуска: 2007
Лейбл: Takaya Music
Страна-производитель: Россия
Аудио кодек: FLAC
Тип рипа: image+.cue
Формат записи: 32/96
Формат раздачи: 16/44.1
Продолжительность: 03:27:07
Источник оцифровки: автором раздачи
Устройство воспроизведения: катушечный магнитофон
АЦП: Terratec Aureon 7.1 Universe
Программа-оцифровщик: Cool Edit Pro 2.1
Обработка: "Cubase SX 2" + "Adobe Audition 2" на карте ESI Juli@
Год образования группы «Оловянные солдатики» - 1968. Это первая в СССР рок-группа, которая сделала концертную программу из собственных песен на русском языке и записала её в виде концептуального магнитоальбома. Группа, которая жива и концертирует до сих пор в своём классическом составе. Группа, сочинившая хит «Водосточная труба». Группа, которая кроме своих песен написала музыку к десятку спектаклей. Группа, которую хоть раз слышали все. Хотя бы потому, что именно они озвучивают четырех собачек, поющих «У попа была собака» во всем известном мульт-сериале «Ну, погоди!».
Данная раздача - трехдисковая коллекция записей «Оловянных солдатиков». На каждом диске - по 2 альбома. 1-й диск - песенный. 2-й и 3-й - записи «рок-опер» (как это принято называть в народе). Оригинальный порядок следования музыкальных композиций сохранен. Специально под издание ничего не переделывалось.
Код: Выделить всё
[b]«Рассуждения» (1972 год)[/b]
 1 (01). Осталось немного печали
 2 (02). Старый крест
 3 (03). Ты поила коня
 4 (04). Рассуждение №1
 5 (05). Рассуждение №2
 6 (06). Найти бы дорогу
 7 (07). Март
 8 (08). Весенний карнавал
 9 (09). То, что нам твердили в детстве
10 (10). Найти бы дорогу - 2
11 (11). Баллада о водосточной трубе
12 (12). О, Анапа!
13 (13). Не отпускай меня, любовь
[b]«Воспоминания» (1976 года)[/b]
 1 (14). Опять весенний карнавал
 2 (15). Легенда
 3 (16). Мы летим домой
 4 (17). Рассуждение №3
 5 (18). Лёд весной исчезнет
 6 (19). Пусть
 7 (20). В жизни ещё будут дни
 8 (21). Воспоминание
 9 (22). Дешевые красные вина
10 (23). Не выпытывай судьбы
11 (24). Не беда
12 (25). Моей судьбы невидимые строки
Код: Выделить всё
REM GENRE Rock
REM DATE 2007
REM DISCID 6C127819
REM COMMENT "ExactAudioCopy v1.0b3"
PERFORMER "Оловянные Солдатики"
TITLE "Коллекция 1972-1981 (CD1)"
FILE "Оловянные Солдатики - Коллекция 1972-1981 (CD1).flac" WAVE
  TRACK 01 AUDIO
    TITLE "Осталось немного печали"
    PERFORMER "Оловянные Солдатики"
    INDEX 01 00:00:00
  TRACK 02 AUDIO
    TITLE "Старый крест"
    PERFORMER "Оловянные Солдатики"
    INDEX 01 03:12:66
  TRACK 03 AUDIO
    TITLE "Ты поила коня"
    PERFORMER "Оловянные Солдатики"
    INDEX 01 05:32:56
  TRACK 04 AUDIO
    TITLE "Рассуждение №1"
    PERFORMER "Оловянные Солдатики"
    INDEX 01 11:30:26
  TRACK 05 AUDIO
    TITLE "Рассуждение №2"
    PERFORMER "Оловянные Солдатики"
    INDEX 01 14:06:38
  TRACK 06 AUDIO
    TITLE "Найти бы дорогу"
    PERFORMER "Оловянные Солдатики"
    INDEX 01 16:45:16
  TRACK 07 AUDIO
    TITLE "Март"
    PERFORMER "Оловянные Солдатики"
    INDEX 01 18:25:19
  TRACK 08 AUDIO
    TITLE "Весенний карнавал"
    PERFORMER "Оловянные Солдатики"
    INDEX 01 21:19:73
  TRACK 09 AUDIO
    TITLE "То, что нам твердили в детстве"
    PERFORMER "Оловянные Солдатики"
    INDEX 01 23:45:60
  TRACK 10 AUDIO
    TITLE "Найти бы дорогу - 2"
    PERFORMER "Оловянные Солдатики"
    INDEX 01 25:59:64
  TRACK 11 AUDIO
    TITLE "Баллада о водосточной трубе"
    PERFORMER "Оловянные Солдатики"
    INDEX 01 34:44:63
  TRACK 12 AUDIO
    TITLE "О, Анапа!"
    PERFORMER "Оловянные Солдатики"
    INDEX 01 36:56:19
  TRACK 13 AUDIO
    TITLE "Не отпускай меня, любовь"
    PERFORMER "Оловянные Солдатики"
    INDEX 01 39:01:13
  TRACK 14 AUDIO
    TITLE "Опять весенний карнавал"
    PERFORMER "Оловянные Солдатики"
    INDEX 01 43:11:05
  TRACK 15 AUDIO
    TITLE "Легенда"
    PERFORMER "Оловянные Солдатики"
    INDEX 01 45:03:64
  TRACK 16 AUDIO
    TITLE "Мы летим домой"
    PERFORMER "Оловянные Солдатики"
    INDEX 01 48:12:23
  TRACK 17 AUDIO
    TITLE "Рассуждение №3"
    PERFORMER "Оловянные Солдатики"
    INDEX 01 51:30:57
  TRACK 18 AUDIO
    TITLE "Лёд весной исчезнет"
    PERFORMER "Оловянные Солдатики"
    INDEX 01 55:07:20
  TRACK 19 AUDIO
    TITLE "Пусть"
    PERFORMER "Оловянные Солдатики"
    INDEX 01 58:20:05
  TRACK 20 AUDIO
    TITLE "В жизни ещё будут дни"
    PERFORMER "Оловянные Солдатики"
    INDEX 01 60:15:11
  TRACK 21 AUDIO
    TITLE "Воспоминание"
    PERFORMER "Оловянные Солдатики"
    INDEX 01 64:39:64
  TRACK 22 AUDIO
    TITLE "Дешевые красные вина"
    PERFORMER "Оловянные Солдатики"
    INDEX 01 68:17:02
  TRACK 23 AUDIO
    TITLE "Не выпытывай судьбы"
    PERFORMER "Оловянные Солдатики"
    INDEX 01 69:51:53
  TRACK 24 AUDIO
    TITLE "Не беда"
    PERFORMER "Оловянные Солдатики"
    INDEX 01 73:08:64
  TRACK 25 AUDIO
    TITLE "Моей судьбы невидимые строки"
    PERFORMER "Оловянные Солдатики"
    INDEX 01 75:32:01
Код: Выделить всё
[b]«Круиз» (1980 год)[/b]
 1 (01). Интродукция
 2 (02). Я хотел бы рассказать
 3 (03). Всадники во вселенной
 4 (04). Растаял день как сон
 5 (05). Эй, парень!
 6 (06). Мне опять приснился сон
 7 (07). Джон Ячменное Зерно
 8 (08). Радиотокката
 9 (09). Моя любимая
10 (10). Куликово поле 1380
11 (11). Минута ликования
12 (12). Чудеса
13 (13). Расставания
[b]«Шторм» (1980 год)[/b]
 1 (14). Море - это без конца вода
 2 (15). Капитан Капитон Капитоныч
 3 (16). Подготовка к шторму
 4 (17). Саша с Борей
 5 (18). Нервный Тарас
 6 (19). Морские волки
 7 (20). Попугай - 1
 8 (21). Попугай - 2
 9 (22). Корабельный кот
10 (23). Девятый вал
11 (24). Штиль
12 (25). Песня Юнги
13 (26). Интерлюдия
Код: Выделить всё
REM GENRE Rock
REM DATE 2007
REM DISCID 62105D1A
REM COMMENT "ExactAudioCopy v1.0b3"
PERFORMER "Оловянные Солдатики"
TITLE "Коллекция 1972-1981 (CD2)"
FILE "Оловянные Солдатики - Коллекция 1972-1981 (CD2).flac" WAVE
  TRACK 01 AUDIO
    TITLE "Интродукция"
    PERFORMER "Оловянные Солдатики"
    INDEX 01 00:00:00
  TRACK 02 AUDIO
    TITLE "Я хотел бы рассказать"
    PERFORMER "Оловянные Солдатики"
    INDEX 01 02:52:65
  TRACK 03 AUDIO
    TITLE "Всадники во вселенной"
    PERFORMER "Оловянные Солдатики"
    INDEX 01 06:02:52
  TRACK 04 AUDIO
    TITLE "Растаял день как сон"
    PERFORMER "Оловянные Солдатики"
    INDEX 01 09:19:44
  TRACK 05 AUDIO
    TITLE "Эй, парень!"
    PERFORMER "Оловянные Солдатики"
    INDEX 01 12:46:00
  TRACK 06 AUDIO
    TITLE "Мне опять приснился сон"
    PERFORMER "Оловянные Солдатики"
    INDEX 01 14:46:50
  TRACK 07 AUDIO
    TITLE "Джон Ячменное Зерно"
    PERFORMER "Оловянные Солдатики"
    INDEX 01 16:39:70
  TRACK 08 AUDIO
    TITLE "Радиотокката"
    PERFORMER "Оловянные Солдатики"
    INDEX 01 20:23:58
  TRACK 09 AUDIO
    TITLE "Моя любимая"
    PERFORMER "Оловянные Солдатики"
    INDEX 01 23:29:32
  TRACK 10 AUDIO
    TITLE "Куликово поле 1380"
    PERFORMER "Оловянные Солдатики"
    INDEX 01 29:21:32
  TRACK 11 AUDIO
    TITLE "Минута ликования"
    PERFORMER "Оловянные Солдатики"
    INDEX 01 31:58:17
  TRACK 12 AUDIO
    TITLE "Чудеса"
    PERFORMER "Оловянные Солдатики"
    INDEX 01 35:52:30
  TRACK 13 AUDIO
    TITLE "Расставания"
    PERFORMER "Оловянные Солдатики"
    INDEX 01 38:31:42
  TRACK 14 AUDIO
    TITLE "Море - это без конца вода"
    PERFORMER "Оловянные Солдатики"
    INDEX 01 43:00:44
  TRACK 15 AUDIO
    TITLE "Капитан Капитон Капитоныч"
    PERFORMER "Оловянные Солдатики"
    INDEX 01 45:13:35
  TRACK 16 AUDIO
    TITLE "Подготовка к шторму"
    PERFORMER "Оловянные Солдатики"
    INDEX 01 47:16:28
  TRACK 17 AUDIO
    TITLE "Саша с Борей"
    PERFORMER "Оловянные Солдатики"
    INDEX 01 48:50:58
  TRACK 18 AUDIO
    TITLE "Нервный Тарас"
    PERFORMER "Оловянные Солдатики"
    INDEX 01 51:02:58
  TRACK 19 AUDIO
    TITLE "Морские волки"
    PERFORMER "Оловянные Солдатики"
    INDEX 01 51:51:57
  TRACK 20 AUDIO
    TITLE "Попугай - 1"
    PERFORMER "Оловянные Солдатики"
    INDEX 01 54:32:15
  TRACK 21 AUDIO
    TITLE "Попугай - 2"
    PERFORMER "Оловянные Солдатики"
    INDEX 01 57:27:44
  TRACK 22 AUDIO
    TITLE "Корабельный кот"
    PERFORMER "Оловянные Солдатики"
    INDEX 01 58:56:16
  TRACK 23 AUDIO
    TITLE "Девятый вал"
    PERFORMER "Оловянные Солдатики"
    INDEX 01 61:44:19
  TRACK 24 AUDIO
    TITLE "Штиль"
    PERFORMER "Оловянные Солдатики"
    INDEX 01 63:26:56
  TRACK 25 AUDIO
    TITLE "Песня Юнги"
    PERFORMER "Оловянные Солдатики"
    INDEX 01 67:10:41
  TRACK 26 AUDIO
    TITLE "Интерлюдия"
    PERFORMER "Оловянные Солдатики"
    INDEX 01 69:18:03
Код: Выделить всё
[b]«Сказка о добре и зле» (1981 год)[/b]
 1 (01). Посмотри на ёлку (песня Оле-Луккое)
 2 (02). Жалящий лёд
 3 (03). Сказка о добре и зле
 4 (04). Танец зонтиков
 5 (05). Танец метели
 6 (06). Люди без лиц
 7 (07). Пещера горного короля
 8 (08). Водяной
 9 (09). Танец Снежинок
10 (10). Разбойники
11 (11). Песня африканцев
12 (12). Время мчится
[b]«Снежная королева» (1981 год)[/b]
 1 (13). XX век
 2 (14). Приход и песня Советника
 3 (15). Сказочник
 4 (16). Поцелуй королевы
 5 (17). Карнавал
 6 (18). Сны придворных
 7 (19). Молитва
 8 (20). Дорога
 9 (21). Песня Герды
10 (22). XVIII век
11 (23). Советник и разбойники
12 (24). Разбойники
13 (25). Белое безмолвие
14 (26). Финал
15 (27). Увертюра
Код: Выделить всё
REM GENRE Rock
REM DATE 2007
REM DISCID 930DB61B
REM COMMENT "ExactAudioCopy v1.0b3"
PERFORMER "Оловянные Солдатики"
TITLE "Коллекция 1972-1981 (CD3)"
FILE "Оловянные Солдатики - Коллекция 1972-1981 (CD3).flac" WAVE
  TRACK 01 AUDIO
    TITLE "Посмотри на ёлку (песня Оле-Луккое)"
    PERFORMER "Оловянные Солдатики"
    INDEX 01 00:00:00
  TRACK 02 AUDIO
    TITLE "Жалящий лёд"
    PERFORMER "Оловянные Солдатики"
    INDEX 01 03:01:15
  TRACK 03 AUDIO
    TITLE "Сказка о добре и зле"
    PERFORMER "Оловянные Солдатики"
    INDEX 01 04:57:05
  TRACK 04 AUDIO
    TITLE "Танец зонтиков"
    PERFORMER "Оловянные Солдатики"
    INDEX 01 05:26:37
  TRACK 05 AUDIO
    TITLE "Танец метели"
    PERFORMER "Оловянные Солдатики"
    INDEX 01 06:44:17
  TRACK 06 AUDIO
    TITLE "Люди без лиц"
    PERFORMER "Оловянные Солдатики"
    INDEX 01 10:33:12
  TRACK 07 AUDIO
    TITLE "Пещера горного короля"
    PERFORMER "Оловянные Солдатики"
    INDEX 01 12:37:46
  TRACK 08 AUDIO
    TITLE "Водяной"
    PERFORMER "Оловянные Солдатики"
    INDEX 01 14:05:25
  TRACK 09 AUDIO
    TITLE "Танец Снежинок"
    PERFORMER "Оловянные Солдатики"
    INDEX 01 16:36:36
  TRACK 10 AUDIO
    TITLE "Разбойники"
    PERFORMER "Оловянные Солдатики"
    INDEX 01 18:11:11
  TRACK 11 AUDIO
    TITLE "Песня африканцев"
    PERFORMER "Оловянные Солдатики"
    INDEX 01 19:00:16
  TRACK 12 AUDIO
    TITLE "Время мчится"
    PERFORMER "Оловянные Солдатики"
    INDEX 01 20:38:47
  TRACK 13 AUDIO
    TITLE "XX век"
    PERFORMER "Оловянные Солдатики"
    INDEX 01 22:00:52
  TRACK 14 AUDIO
    TITLE "Приход и песня Советника"
    PERFORMER "Оловянные Солдатики"
    INDEX 01 24:01:51
  TRACK 15 AUDIO
    TITLE "Сказочник"
    PERFORMER "Оловянные Солдатики"
    INDEX 01 26:17:06
  TRACK 16 AUDIO
    TITLE "Поцелуй королевы"
    PERFORMER "Оловянные Солдатики"
    INDEX 01 27:45:26
  TRACK 17 AUDIO
    TITLE "Карнавал"
    PERFORMER "Оловянные Солдатики"
    INDEX 01 28:57:05
  TRACK 18 AUDIO
    TITLE "Сны придворных"
    PERFORMER "Оловянные Солдатики"
    INDEX 01 30:50:67
  TRACK 19 AUDIO
    TITLE "Молитва"
    PERFORMER "Оловянные Солдатики"
    INDEX 01 32:18:51
  TRACK 20 AUDIO
    TITLE "Дорога"
    PERFORMER "Оловянные Солдатики"
    INDEX 01 34:42:44
  TRACK 21 AUDIO
    TITLE "Песня Герды"
    PERFORMER "Оловянные Солдатики"
    INDEX 01 37:06:28
  TRACK 22 AUDIO
    TITLE "XVIII век"
    PERFORMER "Оловянные Солдатики"
    INDEX 01 39:47:08
  TRACK 23 AUDIO
    TITLE "Советник и разбойники"
    PERFORMER "Оловянные Солдатики"
    INDEX 01 43:36:37
  TRACK 24 AUDIO
    TITLE "Разбойники"
    PERFORMER "Оловянные Солдатики"
    INDEX 01 44:19:51
  TRACK 25 AUDIO
    TITLE "Белое безмолвие"
    PERFORMER "Оловянные Солдатики"
    INDEX 01 46:02:61
  TRACK 26 AUDIO
    TITLE "Финал"
    PERFORMER "Оловянные Солдатики"
    INDEX 01 48:40:35
  TRACK 27 AUDIO
    TITLE "Увертюра"
    PERFORMER "Оловянные Солдатики"
    INDEX 01 53:58:44
http://takayamusic.ru/torrents/os-collections/Digitizing2004.jpgОцифровка магнитофонных лент была произведена в 2004 году. Ленты - первые копии оригиналов. Сами оригиналы по разным причинам не сохранились (либо утрачены, либо не были отданы студиями на руки музыкантам). Для лент с записями на 2-м и 3-м дисках тот магнитофон, который вы видите на картинке справа, является «родным» магнитофоном. То бишь запись производилась именно на него. Марку магнитофона указать не могу. Если кто опознает по картинке - напишите, пожалуйста, в приват. (На фото - бас-гитарист «Оловянных солдатиков» Юрий Лашкарев в момент оцифровки лент). Однако выпустить в свет записи в 2004 году не вышло. Жесткий диск, на который были сохранены файлы, через некоторое время «умер» и работа остановилась. Что-то срочно предпринимать никто не торопился, поэтому работа возобновилась только в начале 2007 года.
#77Жесткий диск был отнесен в лабораторию восстановления данных и исходные wav'ки были спасены. Через год не ежедневных и неспешных реставрационных работ записи были подготовлены к изданию. На удачу на каждый диск поместилось по 2 альбома. Если бы хоть один альбом не поместился - пришлось бы концептуально делать 6-дисковое издание. Первый тираж (50 экземпляров) 2 декабря 2007 года был презентован в клубе «Билингва» (Москва) на дне рождения Юрия Лашкарева в качестве подарка музыкантам и гостям вечеринки. В начале 2008 года был отпечатан основной тираж - 500 экземпляров. В 2011 году было дополнительно отпечатано ещё 100 экземпляров. Ни один из тиражей не поступал в продажу. Издание заявлено как подарочное и раздавалось на концертах группы.
Не забывайте говорить Спасибо. Не уходите с раздачи!   
Торрент: Зарегистрирован [06 янв 2013, 15:47]
Статус:
Проверен
 
.torrent скачан: 0 раз
Хэш: 6542b90146d1c1918d48e5bc5ed2b9d9276e47b4
Размер: 914.98 МБ (959 422 759 байт)
   Стать Автором раздачи
   
Цитата

Вернуться в Отечественная рок-музыка (оцифровки)

Кто сейчас на конференции

Сейчас эту тему просматривают: нет зарегистрированных пользователей и гости: 1