(Rock) [LP] [24/192] Крематорий (4 LP) - 1989-1991, WavPack (image+.cue)

 Статистика раздачи 
Размер: 5.77 ГБ   |  Зарегистрирован: 07 мар 2013, 09:59   |   .torrent скачан: 0 раз
Сидеров: 0  [ 0 байт/сек ]     Личеров: 0  [ 0 байт/сек ]  
  
Аватара пользователя
 
Раздал: 256.39 ГБ
Скачал: 432.89 ГБ
Ратио: 0.672
Сообщения: 213355
Стаж: 8 лет 7 месяцев 15 дней

Крематорий - Клубника со льдом, Зомби, Двойной Альбом

Жанр: Rock
Год выпуска: 1989-1991
Аудио кодек: WavPack
Тип рипа: image+.cue
Формат записи: 24/192
Формат раздачи: 24/192
Продолжительность: 02:20:28
Источник оцифровки: Oleg39
Код класса состояния винила: NM
Устройство воспроизведения: Thorens TD124 mkII + SME 3012 Series II
Головка звукоснимателя: Clearaudio Stradivari
Предварительный усилитель: Van den Hul The Grail (Accumulator driven version)
АЦП: E-MU 0404 USB (ASIO)
Программа-оцифровщик: WaveLab 6
Обработка: Сжатие в wv - Monkey's Audio 4.01, Теги - CUEBeautifier 0.4.31.2
#77Лейбл: Мелодия
Страна-производитель: USSR
Год издания: 1991
Продолжительность: 00:36:31
Треклист:
A1. Мир, полный любви (5:30)
A2. Женщины города роз (6:12)
A3. Хардрокер (4:11)
A4. Космос (4:42)
B1. Фригия (5:07)
B2. Собачий вальс (4:02)
B3. Последний шанс (3:45)
B4. Клубника со льдом (3:01)
REM GENRE "Rock"
REM DATE 1989
REM DISCID C60 30895 006
REM COMMENT "ВТПО Фирма Мелодия, АОЛЗГ, Needledrop By Oleg39"
PERFORMER "Крематорий"
TITLE "Клубника со льдом"
FILE "Krematorij - 1989 - Klubnika so l'dom [NLV 24-192].wv" WAVE
TRACK 01 AUDIO
TITLE "Мир, полный любви"
PERFORMER "Крематорий"
INDEX 01 00:00:00
TRACK 02 AUDIO
TITLE "Женщины города роз"
PERFORMER "Крематорий"
INDEX 01 05:29:72
TRACK 03 AUDIO
TITLE "Хардрокер"
PERFORMER "Крематорий"
INDEX 01 11:42:23
TRACK 04 AUDIO
TITLE "Космос"
PERFORMER "Крематорий"
INDEX 01 15:53:41
TRACK 05 AUDIO
TITLE "Фригия"
PERFORMER "Крематорий"
INDEX 01 20:36:00
TRACK 06 AUDIO
TITLE "Собачий вальс"
PERFORMER "Крематорий"
INDEX 01 25:43:00
TRACK 07 AUDIO
TITLE "Последний шанс"
PERFORMER "Крематорий"
INDEX 01 29:44:53
TRACK 08 AUDIO
TITLE "Клубника со льдом"
PERFORMER "Крематорий"
INDEX 01 33:29:41
© ВТПО "Фирма Мелодия", 1990
Всесоюзная студия грамзаписи. Запись 1989 г.
Апрелевский ордена Ленина завод грампластинок
1991 Зак. 740. Тираж 20000
#77Лейбл: Апрелевский Ордена Ленина Завод
Страна-производитель: USSR
Год издания: 1991
Продолжительность: 0034:31
Треклист:
A1. Зомби (4:13)
A2. Больной (3:49)
A3. Калигула (4:17)
A4. Твари (3:20)
A5. Ура ! (1:25)
B1. Шпалер (4:12)
B2. Черви (3:27)
B3. Газы (3:04)
B4. Уродина (4:26)
B5. Осень (2:18)
REM GENRE "Rock"
REM DATE 1991
REM DISCID C90-32084/1-1
REM COMMENT "АОЛЗГ, 1991, Needledrop By Oleg39"
PERFORMER "Крематорий"
TITLE "Зомби"
FILE "Krematorij - 1991 - Zombi [NLV 24-192].wv" WAVE
TRACK 01 AUDIO
TITLE "Зомби"
PERFORMER "Крематорий"
INDEX 01 00:00:00
TRACK 02 AUDIO
TITLE "Больной"
PERFORMER "Крематорий"
INDEX 01 04:12:45
TRACK 03 AUDIO
TITLE "Калигула"
PERFORMER "Крематорий"
INDEX 01 08:01:43
TRACK 04 AUDIO
TITLE "Твари"
PERFORMER "Крематорий"
INDEX 01 12:18:66
TRACK 05 AUDIO
TITLE "Ура !"
PERFORMER "Крематорий"
INDEX 01 15:39:15
TRACK 06 AUDIO
TITLE "Шпалер"
PERFORMER "Крематорий"
INDEX 01 17:04:19
TRACK 07 AUDIO
TITLE "Черви"
PERFORMER "Крематорий"
INDEX 01 21:15:70
TRACK 08 AUDIO
TITLE "Газы"
PERFORMER "Крематорий"
INDEX 01 24:42:45
TRACK 09 AUDIO
TITLE "Уродина"
PERFORMER "Крематорий"
INDEX 01 27:47:00
TRACK 10 AUDIO
TITLE "Осень"
PERFORMER "Крематорий"
INDEX 01 32:13:34
Записано в Москве в 1991 г. от Р.Х.
Апрелевский ордена Ленина завод грампластинок
Ростовский завод магнитофонных кассет
Типография АЗГ
Заказ 968. Тираж 36100
#77Лейбл: Апрелевка - Саунд
Страна-производитель: Russia
Год издания: 1993
Продолжительность: 01:09:25
Треклист:
A1. Проходящие Мимо (1:12)
A2. Реанимационная Машина (3:54)
A3. Клаустрофобия (4:58)
A4. Адольф (2:53)
A5. Таня (4:05)
A6. Кондратий (1:33)
B1. Крематорий (1:30)
B2. Лепрозорий (3:44)
B3. Маленькая Девочка (2:13)
B4. Посвящение Бывшей Подруге (2:40)
B5. Наше Время (3:53)
B6. Vinus Memoirs (Винные Мемуары) (3:07)
C1. Sky (0:52)
C2. Гончие Псы (2:43)
C3. Последний Шанс (Собачка) (3:36)
C4. Клубника Со Льдом (2:16)
C5. Дрянь (4:17)
C6. Hare Rama (3:25)
D1. Космос (Архип Архипыч) (2:15)
D2. Америка (2:57)
D3. Безобразная Эльза (2:44)
D4. Сексуальная Кошка (2:21)
D5. Аутсайдер (3:16)
D6. Мусорный Ветер (3:01)

REM GENRE "Rock"
REM DATE 1989
REM DISCID К1–К4
REM COMMENT "Крематорий, Апрелевка Саунд, 1993, Needledrop By Oleg39"
PERFORMER "Крематорий"
TITLE "Двойной Альбом LP1"
FILE "Krematorij - 1989 - Dvojnoj Al'bom LP1 [NLV 24-192].wv" WAVE
TRACK 01 AUDIO
TITLE "Проходящие Мимо"
PERFORMER "Крематорий"
INDEX 01 00:00:00
TRACK 02 AUDIO
TITLE "Реанимационная Машина"
PERFORMER "Крематорий"
INDEX 01 01:12:00
TRACK 03 AUDIO
TITLE "Клаустрофобия"
PERFORMER "Крематорий"
INDEX 01 05:06:00
TRACK 04 AUDIO
TITLE "Адольф"
PERFORMER "Крематорий"
INDEX 01 10:04:00
TRACK 05 AUDIO
TITLE "Таня"
PERFORMER "Крематорий"
INDEX 01 12:57:00
TRACK 06 AUDIO
TITLE "Кондратий"
PERFORMER "Крематорий"
INDEX 01 17:01:60
TRACK 07 AUDIO
TITLE "Крематорий"
PERFORMER "Крематорий"
INDEX 01 18:35:00
TRACK 08 AUDIO
TITLE "Лепрозорий"
PERFORMER "Крематорий"
INDEX 01 20:04:54
TRACK 09 AUDIO
TITLE "Маленькая Девочка"
PERFORMER "Крематорий"
INDEX 01 23:49:00
TRACK 10 AUDIO
TITLE "Посвящение Бывшей Подруге"
PERFORMER "Крематорий"
INDEX 01 26:01:50
TRACK 11 AUDIO
TITLE "Наше Время"
PERFORMER "Крематорий"
INDEX 01 28:41:28
TRACK 12 AUDIO
TITLE "Vinus Memoirs (Винные Мемуары)"
PERFORMER "Крематорий"
INDEX 01 32:34:64
REM GENRE "Rock"
REM DATE 1989
REM DISCID К1–К4
REM COMMENT "Крематорий, Апрелевка Саунд, 1993, Needledrop By Oleg39"
PERFORMER "Крематорий"
TITLE "Двойной Альбом LP2"
FILE "Krematorij - 1989 - Dvojnoj Al'bom LP2 [NLV 24-192].wv" WAVE
TRACK 01 AUDIO
TITLE "Sky"
PERFORMER "Крематорий"
INDEX 01 00:00:00
TRACK 02 AUDIO
TITLE "Гончие Псы"
PERFORMER "Крематорий"
INDEX 01 00:52:00
TRACK 03 AUDIO
TITLE "Последний Шанс (Собачка)"
PERFORMER "Крематорий"
INDEX 01 03:35:30
TRACK 04 AUDIO
TITLE "Клубника Со Льдом"
PERFORMER "Крематорий"
INDEX 01 07:11:60
TRACK 05 AUDIO
TITLE "Дрянь"
PERFORMER "Крематорий"
INDEX 01 09:27:60
TRACK 06 AUDIO
TITLE "Hare Rama"
PERFORMER "Крематорий"
INDEX 01 13:44:40
TRACK 07 AUDIO
TITLE "Космос (Архип Архипыч)"
PERFORMER "Крематорий"
INDEX 01 17:09:47
TRACK 08 AUDIO
TITLE "Америка"
PERFORMER "Крематорий"
INDEX 01 19:24:60
TRACK 09 AUDIO
TITLE "Безобразная Эльза"
PERFORMER "Крематорий"
INDEX 01 22:21:34
TRACK 10 AUDIO
TITLE "Сексуальная Кошка"
PERFORMER "Крематорий"
INDEX 01 25:05:45
TRACK 11 AUDIO
TITLE "Аутсайдер"
PERFORMER "Крематорий"
INDEX 01 27:26:10
TRACK 12 AUDIO
TITLE "Мусорный Ветер"
PERFORMER "Крематорий"
INDEX 01 30:41:66
Комплекс записи музыки Киностудии им. Горького
СП "Апрелевка - Саунд Инк"
Заказ 61. Тираж 100000
Не забывайте говорить Спасибо. Не уходите с раздачи!   
Торрент: Зарегистрирован [07 мар 2013, 09:59]
Статус:
Проверен
 
.torrent скачан: 0 раз
Хэш: fcea72e571b2362faaacef65ed388ebefeb4df5a
Размер: 5.77 ГБ (6 198 405 149 байт)
   Стать Автором раздачи
   
Цитата
  • Похожие торренты
    Ответы
    Просмотры
    Последнее сообщение

Вернуться в Отечественная рок-музыка (оцифровки)

Кто сейчас на конференции

Сейчас эту тему просматривают: нет зарегистрированных пользователей и гости: 1