(Rock) [LP] [24/192] Ноль - Песня о безответной любви к родине - 1991 / 2012, WavPack (image+.cue)

 Статистика раздачи 
Размер: 1.63 ГБ   |  Зарегистрирован: 15 мар 2013, 13:17   |   .torrent скачан: 0 раз
Сидеров: 0  [ 0 байт/сек ]     Личеров: 0  [ 0 байт/сек ]  
  
Аватара пользователя
 
Раздал: 256.39 ГБ
Скачал: 432.89 ГБ
Ратио: 0.672
Сообщения: 213355
Стаж: 8 лет 7 месяцев 10 дней

Ноль - Песня о безответной любви к родине

Жанр: Rock
Год выпуска: 1991 / 2012
Лейбл: МируМир / MIR 100380
Страна-производитель: Russia
Аудио кодек: WavPack
Тип рипа: image+.cue
Формат записи: 24/192
Формат раздачи: 24/192
Продолжительность: 00:39:43
Треклист:
A1. Этот русский Rock-n-roll (5:29)
A2. Ехали по улице трамваи (5:25)
A3. Улица Ленина (5:39)
A4. Цикорий (3:10)
B1. Иду, курю (3:37)
B2. Песня о настоящем индейце (4:31)
B3. Ты - тормоз (3:25)
B4. Песня о безответной любви к Родине (0:45)
B5. Человек и Кошка (3:57)
B6. Я.Л.Ю.Б.Л.Ю.Т.Е.Б.Я. (3:44)
Источник оцифровки: Oleg39
Код класса состояния винила: NM
Устройство воспроизведения: Thorens TD124 mkII + SME 3012 Series II
Головка звукоснимателя: Clearaudio Stradivari
Предварительный усилитель: Van den Hul The Grail (Accumulator driven version)
АЦП: E-MU 0404 USB (ASIO)
Программа-оцифровщик: WaveLab 6
Обработка: Сжатие в wv - Monkey's Audio 4.01, Теги - CUEBeautifier 0.4.31.2
REM GENRE "Russian Rock"
REM DATE 1991
REM DISCID MIR 100380
REM COMMENT "MIR 100380, МируМир; 2012, 180 Gr White Vinyl Germany Press, Needledrop By Oleg39"
PERFORMER "Ноль"
TITLE "Песня О Безответной Любви К Родине"
FILE "Nol' - 1991 - Pesnya O Bezotvetnoj Lyubvi K Rodine [NLV 24-192].wv" WAVE
TRACK 01 AUDIO
TITLE "Этот русский Rock-n-roll"
PERFORMER "Ноль"
INDEX 01 00:00:00
TRACK 02 AUDIO
TITLE "Ехали по улице трамваи"
PERFORMER "Ноль"
INDEX 01 05:29:18
TRACK 03 AUDIO
TITLE "Улица Ленина"
PERFORMER "Ноль"
INDEX 01 10:54:42
TRACK 04 AUDIO
TITLE "Цикорий"
PERFORMER "Ноль"
INDEX 01 16:33:66
TRACK 05 AUDIO
TITLE "Иду, курю"
PERFORMER "Ноль"
INDEX 01 19:44:00
TRACK 06 AUDIO
TITLE "Песня о настоящем индейце"
PERFORMER "Ноль"
INDEX 01 23:20:66
TRACK 07 AUDIO
TITLE "Ты - тормоз"
PERFORMER "Ноль"
INDEX 01 27:51:57
TRACK 08 AUDIO
TITLE "Песня о безответной любви к Родине"
PERFORMER "Ноль"
INDEX 01 31:17:00
TRACK 09 AUDIO
TITLE "Человек и Кошка"
PERFORMER "Ноль"
INDEX 01 32:02:00
TRACK 10 AUDIO
TITLE "Я.Л.Ю.Б.Л.Ю.Т.Е.Б.Я."
PERFORMER "Ноль"
INDEX 01 35:59:00
Федор Чистяков – баян, вокал
Алексей Николаев – балалайка, перкуссия (B1, B2), барабаны (B3, B6);
Дмитрий Гусаков – бас-гитара;
Георгий Стариков – электрические и акустические гитары;
Павел Литвинов – перкуссия (A1-A4, B1. B2);
Николай Рубанов – саксофон (A2).
Запись сделана в Независимой Музыкальной Студии на Фонтанке (Санкт-Петербург) летом 1991 года.
Звукооперировали: Вадим Рокицкий, Ясин Тропилло, Владимир Коровин.
А вот этот иметь в коллеции просто обязательно! Действительно с мастерленты сделан! Не говоря уж о шедевральности самого альбома.Из пресс-релиза писал(а):
Цитата:
57608500180 gram white vinyl
Легендарный альбом питерского рок-коллектива, ведомого баянистом-виртуозом Федором Чистяковым, впервые выходит на виниле в полной версии с ярким оформлением и великолепным звуком с оригинальной мастер-ленты от продюсера Евгения Гапеева. Феноменальный успех пришел к "Нолю" с выпуском этого альбома, в который вошли всероссийские хиты "Песня о настоящем индейце", "Иду. Курю", "Человек и кошка" и многие другие. Также на пластинке присутствует песня "Я.Л.Ю.Б.Л.Ю.Т.Е.Б.Я.", в свое время "выпавшая" из винилового издания. Настоящий монумент "лихим девяностых", отлитый в белом виниле.
[/spoiler]
Не забывайте говорить Спасибо. Не уходите с раздачи!   
Торрент: Зарегистрирован [15 мар 2013, 13:17]
Статус:
Проверен
 
.torrent скачан: 0 раз
Хэш: 1a165f14fe9bafae92b15a1ec0b4816c71cd6c19
Размер: 1.63 ГБ (1 752 935 730 байт)
   Стать Автором раздачи
   
Цитата

Вернуться в Отечественная рок-музыка (оцифровки)

Кто сейчас на конференции

Сейчас эту тему просматривают: нет зарегистрированных пользователей и гости: 1