(Фолк Панк) [24/96] [LP] [24/96] Александр Градский - Звезда полей - 1987, FLAC (image+.cue)

 Статистика раздачи 
Размер: 711.37 МБ   |  Зарегистрирован: 17 сен 2012, 15:59   |   .torrent скачан: 0 раз
Сидеров: 0  [ 0 байт/сек ]     Личеров: 0  [ 0 байт/сек ]  
  
Аватара пользователя
 
Раздал: 256.39 ГБ
Скачал: 432.89 ГБ
Ратио: 0.672
Сообщения: 213353
Стаж: 8 лет 8 месяцев 16 дней

[LP] [24/96] Александр Градский - Звезда полей
Жанр: Rock
Год выпуска: 1987
Лейбл: РЗГ "Мелодия" 1987 24579 004
Страна-производитель: СССР
Аудио кодек: FLAC
Тип рипа: image+.cue
Формат записи: 24/96
Формат раздачи: 24/96
Продолжительность: 37:04
Треклист:
Сторона 1
Я умру в крещенские морозы
О чем писать (Наступление ночи)
В твоих глазах
Ночное
О собаках (Угрюмое)
Сторона 2
Дорожная элегия
Источник оцифровки: автором раздачи
Код класса состояния винила: VG
Устройство воспроизведения: Электроника ЭП-017С
Головка звукоснимателя: Ortofon Super OM 10
Предварительный усилитель: Arcam Alpha7
АЦП: Infrasonic Quartet
Программа-оцифровщик: Sound Forge Pro 10.0
Обработка: Вырезал несколько громких щелчков вручную
Доп. информация: Вырезал несколько громких щелчков вручную и поправил уровень записи по пиковому
REM GENRE Rock
REM DATE 1987
REM COMMENT VinilRip pr_denis26
PERFORMER "Александр Градский"
TITLE "Звезда полей"
FILE "Александр Градский - Звезда полей.flac" WAVE
TRACK 01 AUDIO
TITLE "Я умру в крещенские морозы"
INDEX 01 00:05:00
TRACK 02 AUDIO
TITLE "О чем писать (Наступление ночи)"
INDEX 01 06:50:00
TRACK 03 AUDIO
TITLE "В твоих глазах"
INDEX 01 11:06:38
TRACK 04 AUDIO
TITLE "Ночное"
INDEX 01 12:58:70
TRACK 05 AUDIO
TITLE "О собаках (Угрюмое)"
INDEX 01 15:41:43
TRACK 06 AUDIO
TITLE "Дорожная элегия"
INDEX 01 18:58:10
Не забывайте говорить Спасибо. Не уходите с раздачи!   
Торрент: Зарегистрирован [17 сен 2012, 15:59]
Статус:
Проверен
 
.torrent скачан: 0 раз
Хэш: ae99d1a1471bc06cfe1f4a9301a363a70b91e2ac
Размер: 711.37 МБ (745 925 950 байт)
   Стать Автором раздачи
   
Цитата

Вернуться в Отечественная рок-музыка (оцифровки)

Кто сейчас на конференции

Сейчас эту тему просматривают: нет зарегистрированных пользователей и гости: 1