(Rock) [LP] [24/192] Альфа - Альфа Сергея Сарычева (1983-1986) - 2012, WavPack (image+.cue)

 Статистика раздачи 
Размер: 1.89 ГБ   |  Зарегистрирован: 20 июн 2013, 14:15   |   .torrent скачан: 0 раз
Сидеров: 0  [ 0 байт/сек ]     Личеров: 0  [ 0 байт/сек ]  
  
Аватара пользователя
 
Раздал: 256.39 ГБ
Скачал: 432.89 ГБ
Ратио: 0.672
Сообщения: 213355
Стаж: 8 лет 7 месяцев 15 дней

Альфа - Альфа Сергея Сарычева

Жанр: Rock
Год выпуска: 1983-1986 / 2012
Лейбл: Мирумир / MIR 100382
Страна-производитель: Russia
Аудио кодек: WavPack
Тип рипа: image+.cue
Формат записи: 24/192
Формат раздачи: 24/192
Продолжительность: 00:46:07
Tracklist:
01.- Гуляка (3:16)
02.- Зеркало-река (3:59)
03.- Шторм (5:14)
04.- Я сделан из такого вещества (4:53)
05.- Театр (5:11)
06.- Крутится волчок (3:22)
07.- И опускался в сердце мне покой (3:27)
08.- Звезды нам светят в ночи (4:58)
09.- Бесконечность (3:15)
10.- Теплый ветер (4:37)
11.- Молитва (3:55)
Источник оцифровки: Oleg39
Код класса состояния винила: NM
Устройство воспроизведения: Thorens TD124 mkII + SME 3012 Series II
Головка звукоснимателя: Clearaudio Stradivari
Предварительный усилитель: Van den Hul The Grail (Accumulator driven version)
АЦП: E-MU 0404 USB (ASIO)
Программа-оцифровщик: WaveLab 6
Обработка: Сжатие в wv - Monkey's Audio 4.01, Теги - CUEBeautifier 0.4.31.2
REM GENRE "Rock"
REM DATE 2013
REM DISCID MIR 100382
REM COMMENT "Мирумир, 2013, Germany press, Needledrop By Oleg39"
PERFORMER "Альфа Сергея Сарычева"
TITLE "Коллекция лучших хитов к 30-летию группы"
FILE "Al'fa Sergeya Sarycheva - 2013 - Kollekciya luchshih hitov k 30-letiyu gruppy [NLV 24-192].wv" WAVE
TRACK 01 AUDIO
TITLE "Гуляка"
PERFORMER "Альфа Сергея Сарычева"
INDEX 01 00:00:00
TRACK 02 AUDIO
TITLE "Зеркало-река"
PERFORMER "Альфа Сергея Сарычева"
INDEX 01 03:16:25
TRACK 03 AUDIO
TITLE "Шторм"
PERFORMER "Альфа Сергея Сарычева"
INDEX 01 07:15:10
TRACK 04 AUDIO
TITLE "Я сделан из такого вещества"
PERFORMER "Альфа Сергея Сарычева"
INDEX 01 12:29:00
TRACK 05 AUDIO
TITLE "Театр"
PERFORMER "Альфа Сергея Сарычева"
INDEX 01 17:21:50
TRACK 06 AUDIO
TITLE "Крутится волчок"
PERFORMER "Альфа Сергея Сарычева"
INDEX 01 22:32:60
TRACK 07 AUDIO
TITLE "И опускался в сердце мне покой"
PERFORMER "Альфа Сергея Сарычева"
INDEX 01 25:54:40
TRACK 08 AUDIO
TITLE "Звезды нам светят в ночи"
PERFORMER "Альфа Сергея Сарычева"
INDEX 01 29:21:40
TRACK 09 AUDIO
TITLE "Бесконечность"
PERFORMER "Альфа Сергея Сарычева"
INDEX 01 34:19:60
TRACK 10 AUDIO
TITLE "Теплый ветер"
PERFORMER "Альфа Сергея Сарычева"
INDEX 01 37:35:10
TRACK 11 AUDIO
TITLE "Молитва"
PERFORMER "Альфа Сергея Сарычева"
INDEX 01 42:11:60
Не забывайте говорить Спасибо. Не уходите с раздачи!   
Торрент: Зарегистрирован [20 июн 2013, 14:15]
Статус:
Проверен
 
.torrent скачан: 0 раз
Хэш: 93e00b9d6d3c27d78bfe7bceb8226d3d966b76b6
Размер: 1.89 ГБ (2 029 316 985 байт)
   Стать Автором раздачи
   
Цитата
  • Похожие торренты
    Ответы
    Просмотры
    Последнее сообщение

Вернуться в Отечественная рок-музыка (оцифровки)

Кто сейчас на конференции

Сейчас эту тему просматривают: нет зарегистрированных пользователей и гости: 1