(Alternative Rock, New Wave)[LP][24.192] Алиса / Шестой Лесничий - 1990, FLAC (image+.cue)

 Статистика раздачи 
Размер: 1.62 ГБ   |  Зарегистрирован: 10 май 2013, 18:00   |   .torrent скачан: 0 раз
Сидеров: 0  [ 0 байт/сек ]     Личеров: 0  [ 0 байт/сек ]  
  
Аватара пользователя
 
Раздал: 256.39 ГБ
Скачал: 432.89 ГБ
Ратио: 0.672
Сообщения: 213355
Стаж: 8 лет 7 месяцев 8 дней

Алиса / Шестой Лесничий
Жанр: Alternative Rock, New Wave
Год выпуска: 1990
Лейбл: Мелодия – С60 28961 008
Страна-производитель: USSR
Аудио кодек: FLAC
Тип рипа: image+.cue
Формат записи: 32/192
Формат раздачи: 24/192
Продолжительность: 00:43:00
Треклист:
A1 - Новый Метод 2:52
A2 - Тыр-тыр-тыр 6:15
A3 - Шестой Лесничий 5:57
A4 - Театр Теней 5:28
B1 - Аэробика 3:35
B2 - Только Этот День 7:27
B3 - Солнце За Нас 3:57
B4 - Стерх 6:54
Источник оцифровки: автором раздачи
Код класса состояния винила: Ex
Устройство воспроизведения: Pioneer PL-30L
Головка звукоснимателя: AT-13E
Предварительный усилитель: Creec
АЦП: Xonar Essence STX
Программа-оцифровщик: Sound Forge Pro 10
Обработка: --------------------------------------------------
в папке
Доп. информация:
Companies etc:
Pressed By – Апрелевский Завод Грампластинок
Credits:
Artwork [Painter] – А. Столыпин*
Engineer – В. Глазков*
Guitar, Vocals – Константин Кинчев
Lyrics By – К. Кинчев*
Music By – Алиса
Photography By – В. Потапов*
Supervised By [Editor] – Ю. Потеенко*
Notes:
© ВТПО «ФИРМА МЕЛОДИЯ», 1989
Всесоюзная Студия Грамзаписи Запись 1989 г.
Апрелевский Ордена Ленина Завод Грампластинок
1990 Зак. 82. Тираж 40000.
On vinyl labels: Год Выпуска 1990
Barcode and Other IdentifiersЎ
Other (Article): Арт. 11-1.
Other (Price): 2 руб. 50 коп.
Matrix / Runout (Side A): С60-28961/2-2 DMM
Matrix / Runout (Side B): С60-28962/1-2 DMM
TITLE "Шестой Лесничий"
PERFORMER "Алиса"
FILE "Шестой Лесничий.flac" WAVE
TRACK 01 AUDIO
TITLE "Новый Метод"
PERFORMER "Алиса"
INDEX 01 00:00:00
TRACK 02 AUDIO
TITLE "Тыр-тыр-тыр (Тоталитарный Рэп)"
PERFORMER "Алиса"
INDEX 01 02:61:75
TRACK 03 AUDIO
TITLE "Шестой Лесничий"
PERFORMER "Алиса"
INDEX 01 09:18:31
TRACK 04 AUDIO
TITLE "Театр Теней"
PERFORMER "Алиса"
INDEX 01 15:17:42
TRACK 05 AUDIO
TITLE "Аэробика"
PERFORMER "Алиса"
INDEX 01 20:50:09
TRACK 06 AUDIO
TITLE "Только Этот День"
PERFORMER "Алиса"
INDEX 01 24:35:16
TRACK 07 AUDIO
TITLE "Солнце За Нас"
PERFORMER "Алиса"
INDEX 01 31:65:50
TRACK 08 AUDIO
TITLE "Стерх"
PERFORMER "Алиса"
INDEX 01 35:64:45
БлокАда Все материалы представлены исключительно в ознакомительных целях
Не забывайте говорить Спасибо. Не уходите с раздачи!   
Торрент: Зарегистрирован [10 май 2013, 18:00]
Статус:
Проверен
 
.torrent скачан: 0 раз
Хэш: c1203479a1bd13e7ba1a9975bfbc1c518844cd56
Размер: 1.62 ГБ (1 742 282 257 байт)
   Стать Автором раздачи
   
Цитата
  • Похожие торренты
    Ответы
    Просмотры
    Последнее сообщение

Вернуться в Отечественная рок-музыка (оцифровки)

Кто сейчас на конференции

Сейчас эту тему просматривают: нет зарегистрированных пользователей и гости: 1