(rock) [MB][16/44.1] КИНО (Виктор Цой) - магнитоальбом "45" - демо-версия - 1982, FLAC

 Статистика раздачи 
Размер: 225.23 МБ   |  Зарегистрирован: 13 ноя 2012, 17:41   |   .torrent скачан: 0 раз
Сидеров: 0  [ 0 байт/сек ]     Личеров: 0  [ 0 байт/сек ]  
  
Аватара пользователя
 
Раздал: 256.39 ГБ
Скачал: 432.89 ГБ
Ратио: 0.672
Сообщения: 213355
Стаж: 8 лет 7 месяцев 7 дней

КИНО (Виктор Цой) - магнитоальбом "45" - демо-версия
Жанр: rock
Год выпуска: 1982
Страна-производитель: CCCP
Аудио кодек: FLAC
Тип рипа: 1111
Формат записи: 16/44100
Формат раздачи: 16/44100
Продолжительность: 0:41:25
Треклист:
01 - Кино - Ситар играл
02 - Кино - Когда-то ты был битником
03 - Кино - Мои друзья
04 - Кино - Пора спать
05 - Кино - Время есть а денег нет
06 - Кино - Аллюминиевые огурцы
07 - Кино - Солнечные дни
08 - Кино - Просто хочешь ты знать
09 - Кино - Восьмиклассница
10 - Кино - Бездельник 2
11 - Кино - Дерево
12 - Кино - Я асфальт
13 - Кино - Бездельник
Источник оцифровки: автором раздачи
Устройство воспроизведения: Revox B77 MK2
Головка звукоснимателя: нет
Предварительный усилитель: Creative SB 5.1 USB
АЦП: Creative SB 5.1 USB
Программа-оцифровщик: Sound Forge 7.0
Обработка: Отсутствует
REM GENRE Acoustic Rock
REM DATE 1982
REM COMMENT Серый из Харькова
PERFORMER "Кино"
TITLE "45"
FILE "КИНО (Виктор Цой) -45 (демо-версия).flac" WAVE
TRACK 01 AUDIO
TITLE "Ситар играл"
PERFORMER "Кино"
INDEX 01 00:00:00
TRACK 02 AUDIO
TITLE "Когда-то ты был битником"
PERFORMER "Кино"
INDEX 01 01:33:15
TRACK 03 AUDIO
TITLE "Мои друзья"
PERFORMER "Кино"
INDEX 01 05:21:11
TRACK 04 AUDIO
TITLE "На кухне"
PERFORMER "Кино"
INDEX 01 09:42:88
TRACK 05 AUDIO
TITLE "Время есть, а денег нет"
PERFORMER "Кино"
INDEX 01 12:49:77
TRACK 06 AUDIO
TITLE "Алюминиевые огурцы"
PERFORMER "Кино"
INDEX 01 17:01:47
TRACK 07 AUDIO
TITLE "Солнечные дни"
PERFORMER "Кино"
INDEX 01 20:06:18
TRACK 08 AUDIO
TITLE "Просто хочешь ты знать"
PERFORMER "Кино"
INDEX 01 24:02:23
TRACK 09 AUDIO
TITLE "Восьмиклассница"
PERFORMER "Кино"
INDEX 01 27:31:24
TRACK 10 AUDIO
TITLE "Бездельник № 2"
PERFORMER "Кино"
INDEX 01 30:13:06
TRACK 11 AUDIO
TITLE "Дерево"
PERFORMER "Кино"
INDEX 01 33:26:70
TRACK 12 AUDIO
TITLE "Асфальт"
PERFORMER "Кино"
INDEX 01 35:37:95
TRACK 13 AUDIO
TITLE "Бездельник"
PERFORMER "Кино"
INDEX 01 38:57:07
Доп. информация: Оцифрованно с катушки из моей личной коллекции. Отзывы и конструктивная критика приветствуются. Если качество устроит есть примерно в таком же качестве "Начальник камчатки", со второй стороны этой катушки и "Звезда по имени Солнце" с другой катушки.
Раздаю с 10:00 до 23:00 по киевскому времени.
Не забывайте говорить Спасибо. Не уходите с раздачи!   
Торрент: Зарегистрирован [13 ноя 2012, 17:41]
Статус:
Проверен
 
.torrent скачан: 0 раз
Хэш: 9516e9a188a6cee70b333c33f7dfefe1b0ab60b1
Размер: 225.23 МБ (236 166 014 байт)
   Стать Автором раздачи
   
Цитата

Вернуться в Отечественная рок-музыка (оцифровки)

Кто сейчас на конференции

Сейчас эту тему просматривают: нет зарегистрированных пользователей и гости: 1