(Thrash, Heavy Metal) [LP][24/192] Чёрный обелиск - Ещё один день (1992), FLAC (image+.cue)

 Статистика раздачи 
Размер: 1.74 ГБ   |  Зарегистрирован: 28 янв 2013, 15:32   |   .torrent скачан: 0 раз
Сидеров: 0  [ 0 байт/сек ]     Личеров: 0  [ 0 байт/сек ]  
  
Аватара пользователя
 
Раздал: 256.39 ГБ
Скачал: 432.89 ГБ
Ратио: 0.672
Сообщения: 213355
Стаж: 8 лет 7 месяцев 4 дня

Чёрный обелиск - Ещё один день, 1992
Жанр: Thrash, Heavy Metal
Год выпуска диска: 1992
Производитель диска: Russia
Аудио кодек: FLAC
Тип рипа: image+.cue
Битрейт аудио: lossless
Устройство воспроизведения: Rega Planar 2 + AT33EV
Фонокорректор: Pro-ject Tube Box SE Mk II Phono Stage
АЦП: Motu mk3
Программа-оцифровщик: WaveLab 6
Обработка: в ручную убрал несколько щелчков
Сжатие: Foobar 2000
Формат записи: 24 бит, 192000 Гц
Формат раздачи: 24 бит, 192000 Гц
Класс состояния винила: хз
Трэклист:

01. Город В Огне
02. Дорога В Никуда
03. Дом Желтого Сна
04. Убей Их Всех
05. Война
06. Здейсь И Сейчас
07. Еще Один День (День Прошел, А Ты Все Жив)
Материал предназначен исключительно для ознакомления, не забываем приобретать лицензионную продукцию!
PERFORMER "Чёрный обелиск"
TITLE "Ещё один день"
REM DATE 1992
REM GENRE "Thrash, Heavy Metal"
FILE "Чёрный обелиск - Ещё один день, 1992.flac" WAVE
TRACK 01 AUDIO
TITLE "Город В Огне"
INDEX 01 00:00:00
TRACK 02 AUDIO
TITLE "Дорога В Никуда"
INDEX 01 04:39:30
TRACK 03 AUDIO
TITLE "Дом Желтого Сна"
INDEX 01 09:32:50
TRACK 04 AUDIO
TITLE "Убей Их Всех"
INDEX 01 13:49:20
TRACK 05 AUDIO
TITLE "Война"
INDEX 01 18:55:50
TRACK 06 AUDIO
TITLE "Здейсь И Сейчас"
INDEX 01 28:42:00
TRACK 07 AUDIO
TITLE "Еще Один День (День Прошел, А Ты Все Жив)"
INDEX 01 34:38:00
Не забывайте говорить Спасибо. Не уходите с раздачи!   
Торрент: Зарегистрирован [28 янв 2013, 15:32]
Статус:
Проверен
 
.torrent скачан: 0 раз
Хэш: d93e8653b44e46b6de912d284aad0008811ffa88
Размер: 1.74 ГБ (1 873 023 342 байт)
   Стать Автором раздачи
   
Цитата
  • Похожие торренты
    Ответы
    Просмотры
    Последнее сообщение

Вернуться в Отечественная рок-музыка (оцифровки)

Кто сейчас на конференции

Сейчас эту тему просматривают: нет зарегистрированных пользователей и гости: 1