(New Wave) Карнавал (А.Барыкин) - 2 магнитоальбома "Супермен","Запасной игрок" - 1981,1984(Раритет) FLAC (image+.cue), lossless

 Статистика раздачи 
Размер: 544.17 МБ   |  Зарегистрирован: 11 янв 2009, 19:37   |   .torrent скачан: 0 раз
Сидеров: 0  [ 0 байт/сек ]     Личеров: 0  [ 0 байт/сек ]  
  
Аватара пользователя
 
Раздал: 256.39 ГБ
Скачал: 432.89 ГБ
Ратио: 0.672
Сообщения: 213355
Стаж: 8 лет 7 месяцев 8 дней

Группа "Карнавал" (А.Барыкин) - 2 магнитоальбома - "Супермен" & "Запасной игрок"
Жанр: New Wave
Года выпуска альбомов: 1981,1984
Производитель диска: Россия
Аудио кодек: FLAC
Тип рипа: image+.cue
Битрейт аудио: lossless
Продолжительность: 40:19 + 46:55
Формат раздачи 16 / 44.1
Трэклист:
1981 - Супермен
01 - Внезапный тупик
02 - Супермен
03 - Больше не встречу
04 - Мир надежд моих
05 - Пустое слово
06 - Я знаю теперь
07 - Слёзы льёт лёд
08 - Сказочная леди
09 - Стена
10 - Кто прав
В 1979 году два гитариста - А.Барыкин и В.Кузьмин - Уже хорошо известные по выступлениям в ВИА "Надежда" , "Весёлые ребята" и "Самоцветы" решили образовать собственный проект.В него также вошли барабанщик В.Болдырев и басист Е.Казанцев.Уже через год группа выпускает первый и единственный в этом составе магнитоальбом "Супермен" который представлен на этом диске.
Вскоре двум композиторам и певцам - Кузьмину и Барыкину становится тесно - творческих идей у каждого вдоволь и они решают идти каждый своим путём.Кузьмин собирает новую группу "Динамик" а Барыкин продолжает "Карнавал" с другими музыкантами.
Exact Audio Copy V0.99 prebeta 4 from 23. January 2008
EAC Auslese-Logdatei vom 11. Januar 2009, 18:12
Karnaval / Superman
Benutztes Laufwerk : HL-DT-STDVD-ROM GDR-H30N Adapter: 0 ID: 1
Lesemodus : Sicher
Benutze Accurate Stream : Ja
Audio Puffer abgeschaltet : Ja
Benutze C2 Fehlerinformationen : Nein
Leseoffset Korrektur : 6
Überlesen in das Lead-In und Lead-Out : Nein
Fülle fehlende Offsetsample mit Stille auf : Ja
Lösche führende und nachfolgende stille Blöcke : Nein
Null Samples gehen in CRC Berechnungen ein : Ja
Benutzte Schnittstelle : Installierte externe ASPI Schnittstelle
Benutztes Ausgabeformat : Interne WAV Routinen
Sampleformat : 44.100 Hz; 16 Bit; Stereo
TOC der ausgelesenen CD
Track | Start | Länge | Startsektor | Endsektor
-------------------------------------------------------
1 | 0:00.00 | 5:04.10 | 0 | 22809
2 | 5:04.10 | 5:13.52 | 22810 | 46336
3 | 10:17.62 | 3:34.52 | 46337 | 62438
4 | 13:52.39 | 3:19.35 | 62439 | 77398
5 | 17:11.74 | 3:19.62 | 77399 | 92385
6 | 20:31.61 | 3:39.06 | 92386 | 108816
7 | 24:10.67 | 4:56.24 | 108817 | 131040
8 | 29:07.16 | 3:59.13 | 131041 | 148978
9 | 33:06.29 | 3:57.33 | 148979 | 166786
10 | 37:03.62 | 3:15.19 | 166787 | 181430
Bereichsstatus und Fehler
Gewählter Bereich
Dateiname C:\Dokumente und Einstellungen\Boris\Eigene Dateien\Karnaval\1981 - Superman\Karnaval - Superman.wav
Spitzenpegel 90.8 %
Bereichsqualität 99.9 %
Kopie CRC 1F6DFBE7
Kopie OK
Keine Fehler aufgetreten
AccurateRip Übersicht
Track 1 nicht in Datenbank enthalten
Track 2 nicht in Datenbank enthalten
Track 3 nicht in Datenbank enthalten
Track 4 nicht in Datenbank enthalten
Track 5 nicht in Datenbank enthalten
Track 6 nicht in Datenbank enthalten
Track 7 nicht in Datenbank enthalten
Track 8 nicht in Datenbank enthalten
Track 9 nicht in Datenbank enthalten
Track 10 nicht in Datenbank enthalten
Keiner der Tracks ist in der AccurateRip Datenbank vorhanden
Ende des Statusreports
#771984 - Запасной игрок
01 - Запасной игрок
02 - Съёмка
03 - Спасательный круг
04 - Мона Лиза
05 - Ступени
06 - Он и она
07 - Две копейки
08 - Лето
09 - Чили
"Карнавал" основан в 1979 году А.Барыкиным и В.Кузьминым.Группу они собрали чтобы играть вошедшую в моду на Западе "новую волну".В 1982 г. В.Кузьмин создаёт "Динамик" а Барыкин набирает новых музыкантов - гитариста А.Выпова,басиста А.Бирмана и барабанщика А.Акинина.После записи альбома "Карусель" в группу приходят саксофонист и флейтист В.Ильенко и клавишник А.Смирнов.Каждый год у "Карнавала" выходит по магнитоальбому,в 1984 г. программа называлась "Запасной игрок".Группа с успехом давала концерты с этой программой,на слуху были хиты того периода - заглавная песня "Спасательный круг" и "Чили".Эта программа в оригинальном виде представлена на данном диске.
Exact Audio Copy V0.99 prebeta 4 from 23. January 2008
EAC Auslese-Logdatei vom 11. Januar 2009, 17:36
Zapasnoi igrok / Karnaval
Benutztes Laufwerk : HL-DT-STDVD-ROM GDR-H30N Adapter: 0 ID: 1
Lesemodus : Sicher
Benutze Accurate Stream : Ja
Audio Puffer abgeschaltet : Ja
Benutze C2 Fehlerinformationen : Nein
Leseoffset Korrektur : 6
Überlesen in das Lead-In und Lead-Out : Nein
Fülle fehlende Offsetsample mit Stille auf : Ja
Lösche führende und nachfolgende stille Blöcke : Nein
Null Samples gehen in CRC Berechnungen ein : Ja
Benutzte Schnittstelle : Installierte externe ASPI Schnittstelle
Benutztes Ausgabeformat : Interne WAV Routinen
Sampleformat : 44.100 Hz; 16 Bit; Stereo
TOC der ausgelesenen CD
Track | Start | Länge | Startsektor | Endsektor
-------------------------------------------------------
1 | 0:00.00 | 5:33.67 | 0 | 25041
2 | 5:33.67 | 6:35.17 | 25042 | 54683
3 | 12:09.09 | 5:09.09 | 54684 | 77867
4 | 17:18.18 | 4:28.22 | 77868 | 97989
5 | 21:46.40 | 4:40.61 | 97990 | 119050
6 | 26:27.26 | 5:31.39 | 119051 | 143914
7 | 31:58.65 | 5:37.20 | 143915 | 169209
8 | 37:36.10 | 4:58.55 | 169210 | 191614
9 | 42:34.65 | 4:20.27 | 191615 | 211141
Bereichsstatus und Fehler
Gewählter Bereich
Dateiname C:\Dokumente und Einstellungen\Boris\Eigene Dateien\Karnaval\1984 - Zapasnoi igrok\Zapasnoi igrok - Karnaval.wav
Spitzenpegel 89.7 %
Bereichsqualität 99.9 %
Kopie CRC B6A67FB7
Kopie OK
Keine Fehler aufgetreten
AccurateRip Übersicht
Track 1 nicht in Datenbank enthalten
Track 2 nicht in Datenbank enthalten
Track 3 nicht in Datenbank enthalten
Track 4 nicht in Datenbank enthalten
Track 5 nicht in Datenbank enthalten
Track 6 nicht in Datenbank enthalten
Track 7 nicht in Datenbank enthalten
Track 8 nicht in Datenbank enthalten
Track 9 nicht in Datenbank enthalten
Keiner der Tracks ist in der AccurateRip Datenbank vorhanden
Ende des Statusreports
Доп. информация: Эти диски я покупал на Горбушке в 2003 году.Судя по всему рипы с катушек - Lossless.Самый настоящий раритет т.к. многие вещи так и не издавали.Особенно хочу отметить "Спасательный круг"(первая студийная запись) - даже в mp3 тяжело найти.Вообщем качайте на здоровье
Не забывайте говорить Спасибо. Не уходите с раздачи!   
Торрент: Зарегистрирован [11 янв 2009, 19:37]
Статус:
Проверен
 
.torrent скачан: 0 раз
Хэш: d684ca307cab69c2d586bc5256cd155f1f727b25
Размер: 544.17 МБ (570 601 029 байт)
   Стать Автором раздачи
   
Цитата
  • Похожие торренты
    Ответы
    Просмотры
    Последнее сообщение

Вернуться в Отечественная рок-музыка (оцифровки)

Кто сейчас на конференции

Сейчас эту тему просматривают: нет зарегистрированных пользователей и гости: 1