(Rock) [LP] [24/96] Чернавский/Матецкий - Банановые острова - 2013, FLAC (image+.cue)

 Статистика раздачи 
Размер: 943.24 МБ   |  Зарегистрирован: 30 май 2013, 21:09   |   .torrent скачан: 0 раз
Сидеров: 0  [ 0 байт/сек ]     Личеров: 0  [ 0 байт/сек ]  
  
Аватара пользователя
 
Раздал: 256.39 ГБ
Скачал: 432.89 ГБ
Ратио: 0.672
Сообщения: 213355
Стаж: 8 лет 7 месяцев 4 дня

Чернавский/Матецкий - Банановые острова

Жанр: Rock
Год выпуска: 2013
Лейбл: Мирумир
Аудио кодек: FLAC
Тип рипа: image+.cue
Формат записи: 24/192
Формат раздачи: 24/96
Продолжительность: 45:30.000 (262 080 000 samples)
Треклист:
A1. Банановые острова
A2. Зебра
A3. Здравствуй, мальчик Бананан!
A4. Становитесь в очередь за мной
B1. Инструментал
B2. Я сам
B3. Мечта идиота
B4. Робот
B5. Я иду к тебе
Источник оцифровки: виниловая пластинка
Состояния винила: VG
Устройство воспроизведения: Excalibour RX 3000 (собственная разработка)
Предварительный усилитель: Excalibour PX 9000 (собственная разработка)
АЦП: M-Audio
Программа-оцифровщик: SF10
Обработка: несколько щелчков и особо докучливых выпадений сигнала, нормализация, даунсэмплинг
Код: Выделить всё
REM GENRE Synth-Pop
REM DATE 2013
REM COMMENT hi-res vinyl rip
PERFORMER "Чернавский/Матецкий"
TITLE "Банановые острова"
FILE "bananovye.ostrova.1983.24.96.vinyl.rip.2013.flac" WAVE
  TRACK 01 AUDIO
    TITLE "Банановые острова"
    INDEX 01 00:00:00
  TRACK 02 AUDIO
    TITLE "Зебра"
    INDEX 01 06:58:48
  TRACK 03 AUDIO
    TITLE "Здравствуй, мальчик Бананан!"
    INDEX 01 11:09:38
  TRACK 04 AUDIO
    TITLE "Становитесь в очередь за мной"
    INDEX 01 18:15:21
  TRACK 05 AUDIO
    TITLE "Инструментал"
    INDEX 01 23:17:30
  TRACK 06 AUDIO
    TITLE "Я сам"
    INDEX 01 26:00:65
  TRACK 07 AUDIO
    TITLE "Мечта идиота"
    INDEX 01 30:21:58
  TRACK 08 AUDIO
    TITLE "Робот"
    INDEX 01 37:32:02
  TRACK 09 AUDIO
    TITLE "Я иду к тебе"
    INDEX 01 42:01:73
Не забывайте говорить Спасибо. Не уходите с раздачи!   
Торрент: Зарегистрирован [30 май 2013, 21:09]
Статус:
Проверен
 
.torrent скачан: 0 раз
Хэш: d08c05f32303638f9bfe7cb5a29817b2dec01dfa
Размер: 943.24 МБ (989 061 548 байт)
   Стать Автором раздачи
   
Цитата

Вернуться в Отечественная рок-музыка (оцифровки)

Кто сейчас на конференции

Сейчас эту тему просматривают: нет зарегистрированных пользователей и гости: 1