(Rock) [LP] [24/192] Гарик Сукачев и Бригада С - Реки - 1993 / 2012, WavPack (image+.cue)

 Статистика раздачи 
Размер: 1.96 ГБ   |  Зарегистрирован: 15 мар 2013, 13:43   |   .torrent скачан: 13 раз
Сидеров: 1  [ 0 байт/сек ]     Личеров: 0  [ 0 байт/сек ]  
  
Аватара пользователя
 
Раздал: 256.39 ГБ
Скачал: 432.89 ГБ
Ратио: 0.672
Сообщения: 213355
Стаж: 8 лет 7 месяцев 4 дня

Гарик Сукачев и Бригада С - Реки

Жанр: Rock
Год выпуска: 1993 / 2012
Лейбл: МируМир / MIR 100362
Страна-производитель: Russia
Аудио кодек: WavPack
Тип рипа: image+.cue
Формат записи: 24/192
Формат раздачи: 24/192
Продолжительность: 00:48:28
Треклист:
A1. На Перекрестке Луны (6:46)
A2. Белый Колпак (5:32)
A3. Эй, Мама, Я Погиб На Войне (5:15)
A4. Реки (6:38)
B1. Чем Пахнут Твои Деньги (6:17)
B2. Скорый Поезд Придет В 6 Часов (5:18)
B3. Дорожная (5:02)
B4. Вальс Москва (7:41)
Источник оцифровки: Oleg39
Код класса состояния винила: NM
Устройство воспроизведения: Thorens TD124 mkII + SME 3012 Series II
Головка звукоснимателя: Clearaudio Stradivari
Предварительный усилитель: Van den Hul The Grail (Accumulator driven version)
АЦП: E-MU 0404 USB (ASIO)
Программа-оцифровщик: WaveLab 6
Обработка: Сжатие в wv - Monkey's Audio 4.01, Теги - CUEBeautifier 0.4.31.2
REM GENRE "Rock"
REM DATE 1993
REM DISCID MIR 100362
REM COMMENT "MIR 100362, МируМир; 2012, 180 Gr Vinyl Germany Press, Needledrop By Oleg39"
PERFORMER "Бригада С"
TITLE "Реки"
FILE "Brigada S - 1993 - Reki [NLV 24-192].wv" WAVE
TRACK 01 AUDIO
TITLE "На Перекрестке Луны"
PERFORMER "Бригада С"
INDEX 01 00:00:00
TRACK 02 AUDIO
TITLE "Белый Колпак"
PERFORMER "Бригада С"
INDEX 01 06:46:00
TRACK 03 AUDIO
TITLE "Эй, Мама, Я Погиб На Войне"
PERFORMER "Бригада С"
INDEX 01 12:18:00
TRACK 04 AUDIO
TITLE "Реки"
PERFORMER "Бригада С"
INDEX 01 17:33:00
TRACK 05 AUDIO
TITLE "Чем Пахнут Твои Деньги"
PERFORMER "Бригада С"
INDEX 01 24:11:00
TRACK 06 AUDIO
TITLE "Скорый Поезд Придет В 6 Часов"
PERFORMER "Бригада С"
INDEX 01 30:27:40
TRACK 07 AUDIO
TITLE "Дорожная"
PERFORMER "Бригада С"
INDEX 01 35:45:30
TRACK 08 AUDIO
TITLE "Вальс Москва"
PERFORMER "Бригада С"
INDEX 01 40:47:12
Не забывайте говорить Спасибо. Не уходите с раздачи!   
Торрент: Зарегистрирован [15 мар 2013, 13:43]
Статус:
Проверен
 
.torrent скачан: 13 раз
Хэш: 9838a77799405142353b106f4c3e8d40bb37e407
Размер: 1.96 ГБ (2 106 759 734 байт)
   Стать Автором раздачи
   
Цитата
  • Похожие торренты
    Ответы
    Просмотры
    Последнее сообщение

Вернуться в Отечественная рок-музыка (оцифровки)

Кто сейчас на конференции

Сейчас эту тему просматривают: нет зарегистрированных пользователей и гости: 1