(Punk) [LP] [24/192] Егор и Опиз-еневшие - Прыг-Скок - 1992, WavPack (image+.cue)

 Статистика раздачи 
Размер: 1.64 ГБ   |  Зарегистрирован: 19 апр 2012, 16:40   |   .torrent скачан: 0 раз
Сидеров: 0  [ 0 байт/сек ]     Личеров: 0  [ 0 байт/сек ]  
  
Аватара пользователя
 
Раздал: 256.39 ГБ
Скачал: 432.89 ГБ
Ратио: 0.672
Сообщения: 213355
Стаж: 8 лет 7 месяцев 4 дня

Егор и Опиз-еневшие - Прыг-Скок
Жанр: Punk
Год выпуска: 1992
Лейбл: Zolotaja Dolina and GrOb-Records
Страна-производитель: Россия
Аудио кодек: WavPack
Тип рипа: image+.cue
Формат записи: 24/192
Формат раздачи: 24/192
Продолжительность: 00:38:39
Треклист:
01 - Про дурачка
02 - Песенка о святости. мыше и камыше
03 - Отряд не заметил потери бойца
04 - Толчки И Червячки
05 - Красный смех
06 - Ночь
07 - Маленький принц возвращался домой
08 - Еще раз про дурачка
09 - Про мишутку (Песенка для Янки)
10 - Про малиновую девочку
11 - Когда я умер
12 - Иваново детство
13 - Прыг-скок
Источник оцифровки: Oleg39
Код класса состояния винила: Mint
Устройство воспроизведения: Thorens TD124 mkII + SME 3012 Series II
Предварительный усилитель: Van den Hul The Grail (Accumulator driven version)
АЦП: E-MU 0404 USB (ASIO)
Программа-оцифровщик: WaveLab 6
Обработка: Сжатие в wv - Monkey's Audio 4.01, Теги - CUEBeautifier 0.4.31.2
REM GENRE "Psychedelic punk"
REM DATE 1990
REM DISCID ZD001
REM COMMENT "Zolotaja Dolina and GrOb-Records, 1992, ZD001, Needledrop by Oleg39"
PERFORMER "Егор и Оп...невшие"
TITLE "Прыг-Скок (Детские Песенки)"
FILE "Egor i Op...nevshie - 1990 - Pryg-Skok (Detskie Pesenki) [NLV 24-192].wv" WAVE
TRACK 01 AUDIO
TITLE "Про дурачка"
PERFORMER "Егор и Опизденевшие"
INDEX 01 00:00:00
TRACK 02 AUDIO
TITLE "Песенка о святости. мыше и камыше"
PERFORMER "Егор и Опизденевшие"
INDEX 01 04:26:00
TRACK 03 AUDIO
TITLE "Отряд не заметил потери бойца"
PERFORMER "Егор и Опизденевшие"
INDEX 01 06:57:00
TRACK 04 AUDIO
TITLE "Толчки И Червячки"
PERFORMER "Егор и Опизденевшие"
INDEX 01 09:21:26
TRACK 05 AUDIO
TITLE "Красный смех"
PERFORMER "Егор и Опизденевшие"
INDEX 01 11:06:18
TRACK 06 AUDIO
TITLE "Ночь"
PERFORMER "Егор и Опизденевшие"
INDEX 01 14:23:00
TRACK 07 AUDIO
TITLE "Маленький принц возвращался домой"
PERFORMER "Егор и Опизденевшие"
INDEX 01 15:19:00
TRACK 08 AUDIO
TITLE "Еще раз про дурачка"
PERFORMER "Егор и Опизденевшие"
INDEX 01 18:32:69
TRACK 09 AUDIO
TITLE "Про мишутку (Песенка для Янки)"
PERFORMER "Егор и Опизденевшие"
INDEX 01 18:50:36
TRACK 10 AUDIO
TITLE "Про малиновую девочку"
PERFORMER "Егор и Опизденевшие"
INDEX 01 21:24:00
TRACK 11 AUDIO
TITLE "Когда я умер"
PERFORMER "Егор и Опизденевшие"
INDEX 01 24:35:25
TRACK 12 AUDIO
TITLE "Иваново детство"
PERFORMER "Егор и Опизденевшие"
INDEX 01 24:40:63
TRACK 13 AUDIO
TITLE "Прыг-скок"
PERFORMER "Егор и Опизденевшие"
INDEX 01 28:15:50
Не забывайте говорить Спасибо. Не уходите с раздачи!   
Торрент: Зарегистрирован [19 апр 2012, 16:40]
Статус:
Проверен
 
.torrent скачан: 0 раз
Хэш: 17b92872d6c7a2caacada6aa18c19247f45a78e6
Размер: 1.64 ГБ (1 764 512 546 байт)
   Стать Автором раздачи
   
Цитата

Вернуться в Отечественная рок-музыка (оцифровки)

Кто сейчас на конференции

Сейчас эту тему просматривают: нет зарегистрированных пользователей и гости: 1