(Rock) [LP] [24/192] Александр Башлачев - Время Колокольчиков - 1989, WavPack (image+.cue)

 Статистика раздачи 
Размер: 1.51 ГБ   |  Зарегистрирован: 19 апр 2012, 02:41   |   .torrent скачан: 0 раз
Сидеров: 0  [ 0 байт/сек ]     Личеров: 0  [ 0 байт/сек ]  
  
Аватара пользователя
 
Раздал: 256.39 ГБ
Скачал: 432.89 ГБ
Ратио: 0.672
Сообщения: 213355
Стаж: 8 лет 7 месяцев 14 дней

Александр Башлачев - Время Колокольчиков
Жанр: Rock
Год выпуска: 1989
Лейбл: Мелодия
Страна-производитель: СССР
Аудио кодек: WavPack
Тип рипа: image+.cue
Формат записи: 24/192
Формат раздачи: 24/192
Продолжительность: 00:39:58
Треклист:
01 - Время колокольчиков
02 - Посошок
03 - От винта!
04 - На жизнь поэтов
05 - Ванюша
06 - Некому березу заломати
07 - Как ветра осенние
Источник оцифровки: Oleg39
Код класса состояния винила: Mint
Устройство воспроизведения: Thorens TD124 mkII + SME 3012 Series II
Предварительный усилитель: Van den Hul The Grail (Accumulator driven version)
АЦП: E-MU 0404 USB (ASIO)
Программа-оцифровщик: WaveLab 6
Обработка: Сжатие в wv - Monkey's Audio 4.01, Теги - CUEBeautifier 0.4.31.2
REM GENRE "Rock"
REM DATE 1986
REM DISCID C60 27923 004
REM COMMENT "Мелодия, АОЛЗ, 1989, C60 27923 004. Needledrop by Oleg39"
PERFORMER "Александр Башлачев"
TITLE "Время колокольчиков"
FILE "Aleksandr Bashlachev - 1986 - Vremya kolokol'chikov [NLV 24-192].wv" WAVE
TRACK 01 AUDIO
TITLE "Время колокольчиков"
PERFORMER "Александр Башлачев"
INDEX 01 00:00:00
TRACK 02 AUDIO
TITLE "Посошок"
PERFORMER "Александр Башлачев"
INDEX 01 03:52:24
TRACK 03 AUDIO
TITLE "От винта!"
PERFORMER "Александр Башлачев"
INDEX 01 09:09:00
TRACK 04 AUDIO
TITLE "На жизнь поэтов"
PERFORMER "Александр Башлачев"
INDEX 01 13:39:00
TRACK 05 AUDIO
TITLE "Ванюша"
PERFORMER "Александр Башлачев"
INDEX 01 20:06:56
TRACK 06 AUDIO
TITLE "Некому березу заломати"
PERFORMER "Александр Башлачев"
INDEX 01 32:25:38
TRACK 07 AUDIO
TITLE "Как ветра осенние"
PERFORMER "Александр Башлачев"
INDEX 01 35:37:50
Не забывайте говорить Спасибо. Не уходите с раздачи!   
Торрент: Зарегистрирован [19 апр 2012, 02:41]
Статус:
Проверен
 
.torrent скачан: 0 раз
Хэш: 554224b1e48113b715843f0d56fe1f6ce9fc319b
Размер: 1.51 ГБ (1 621 686 583 байт)
   Стать Автором раздачи
   
Цитата

Вернуться в Отечественная рок-музыка (оцифровки)

Кто сейчас на конференции

Сейчас эту тему просматривают: нет зарегистрированных пользователей и гости: 1