(Rock) [SM, VHS] [16/44.1] Евгений Потоцкий - Серый Дождь - 1990, FLAC (image+.cue), lossless

 Статистика раздачи 
Размер: 500.33 МБ   |  Зарегистрирован: 09 окт 2010, 22:02   |   .torrent скачан: 0 раз
Сидеров: 0  [ 0 байт/сек ]     Личеров: 0  [ 0 байт/сек ]  
  
Аватара пользователя
 
Раздал: 256.39 ГБ
Скачал: 432.89 ГБ
Ратио: 0.672
Сообщения: 213355
Стаж: 8 лет 7 месяцев 16 дней

Евгений Потоцкий -
Серый ДождьЖанр: Rock
Год выпуска альбома: 1990
Страна: (г. Белая Церковь)
Аудио кодек: FLAC
Тип рипа: image+.cue
Битрейт аудио: lossless
Продолжительность: 01:11:08
Наличие сканов в содержимом раздачи: Нет
Треклист:
01 - Серый Дождь (06:20)
02 - Осень (06:33)
03 - Сон (05:56)
04 - Ненавижу Понедельник (05:20)
05 - Хрустальный Корабль (04:01)
06 - Милый Друг (03:49)
07 - Моя Лодка (08:24)
08 - Река (06:17)
09 - Мы Ждали У Моря Погоды (04:37)
10 - Калифорния (Рай Для Дураков) (04:52)
11 - Ветер Ночи (04:47)
12 - Воин Вызженной Земли (03:48)
13 - Игра (06:17)
Оцифровка выполнена: Третьим лицом
Класс состояния носителя: Неизвестно
Устройство воспроизведения: Неизвестно
Предварительный усилитель: Неизвестно
АЦП: Неизвестно
Программа-оцифровщик: Неизвестно
Обработка: Неизвестно
Кодировка во Flac: FLAC frontend (Level: 8)
Формат записи (Bit/kHz): Неизвестно
Формат раздачи (Bit/kHz): 16/44.1
Код: Выделить всё
AUDIOCHECKER v2.0 beta (build 457) - by Dester - opdester@freemail.hu
~~~~~~~~~~~~~~~~~~~~~~~~~~~~~~~~~~
-=== DO NOT EDIT THIS FILE! ===-
Path: ...\Евгений Потоцкий
1 -=- Евгений Потоцкий - Серый Дождь.flac -=- CDDA (100%)
146047396

Код: Выделить всё
foobar2000 1.1.17 / Замер динамического диапазона (DR) 1.1.1
Дата отчёта: 2014-04-27 12:18:57
--------------------------------------------------------------------------------
Статистика для:  ?-Евгений Потоцкий - Серый Дождь
Количество сэмплов: 188237028
Продолжительность: 1:11:08
--------------------------------------------------------------------------------
           Левый             Правый
Пики:        0.00 дБ     ---      0.00 дБ
Средний RMS:      -9.69 дБ     ---    -10.14 дБ
DR канала:       7.83 дБ     ---      8.38 дБ
--------------------------------------------------------------------------------
Реальные значения DR: DR8
Частота:  44100 Гц
Каналов:  2
Разрядность:   16
Битрейт:  982 кбит/с
Кодек:   FLAC
================================================================================
Есть этот пласт на руках. Разживусь вертаком - сделаю и свой вариант оцифровки.
Эта оцифровка была сделана со студийной матрицы + с видеокассеты два последних трека (так мне объяснили).
На каком оборудовании и с помощью чего не знаю.
Попала она ко мне в виде Audio CD (записана на CD-R).
Сделал рип через ExactAudioCopy v0.99pb5
Код: Выделить всё
Exact Audio Copy V0.99 prebeta 5 from 4. May 2009
Отчёт EAC об извлечении, выполненном 3. мая 2010, 21:51
Евгений Потоцкий / Серый Дождь
Дисковод: HL-DT-STDVDRAM GSA-4167B   Adapter: 1  ID: 0
Режим чтения                 : Достоверность
Использование точного потока : Да
Отключение кэша аудио        : Да
Использование указателей C2  : Нет
Коррекция смещения при чтении                     : 667
Способность читать области Lead-in и Lead-out     : Нет
Заполнение пропущенных сэмплов тишиной            : Да
Удаление блоков с тишиной в начале и конце        : Нет
При вычислениях CRC использовались нулевые сэмплы : Да
Интерфейс                                         : Установленный внешний ASPI-интерфейс
Выходной формат : Внутренние WAV-операции
Формат сэмплов  : 44.100 Гц; 16 бит; стерео
TOC извлечённого CD
     Трек |   Старт  | Длительность | Начальный сектор | Конечный сектор
    ---------------------------------------------------------------------
       1  |  0:00.00 |    6:20.48   |           0      |      28547
       2  |  6:20.48 |    6:33.51   |       28548      |      58073
       3  | 12:54.24 |    5:56.37   |       58074      |      84810
       4  | 18:50.61 |    5:20.20   |       84811      |     108830
       5  | 24:11.06 |    4:01.31   |      108831      |     126936
       6  | 28:12.37 |    3:49.72   |      126937      |     144183
       7  | 32:02.34 |    8:24.21   |      144184      |     182004
       8  | 40:26.55 |    6:17.56   |      182005      |     210335
       9  | 46:44.36 |    4:37.23   |      210336      |     231133
      10  | 51:21.59 |    4:52.56   |      231134      |     253089
      11  | 56:14.40 |    4:47.35   |      253090      |     274649
      12  | 61:02.00 |    3:48.38   |      274650      |     291787
      13  | 64:50.38 |    6:17.68   |      291788      |     320130
Характеристики диапазона извлечения и сообщения об ошибках
Выбранный диапазон
     Имя файла D:\Music\Audio CD\Евгений Потоцкий\Евгений Потоцкий - Серый Дождь.wav
     Пиковый уровень 99.9 %
     Качество диапазона 100.0 %
     CRC копии 22F5B5BA
     Копирование... OK
Ошибок не произошло
AccurateRip: сводка
Трек  1  нет в базе данных
Трек  2  нет в базе данных
Трек  3  нет в базе данных
Трек  4  нет в базе данных
Трек  5  нет в базе данных
Трек  6  нет в базе данных
Трек  7  нет в базе данных
Трек  8  нет в базе данных
Трек  9  нет в базе данных
Трек 10  нет в базе данных
Трек 11  нет в базе данных
Трек 12  нет в базе данных
Трек 13  нет в базе данных
Ни одного трека нет в базе AccurateRip
Конец отчёта

Не забывайте говорить Спасибо. Не уходите с раздачи!   
Торрент: Зарегистрирован [09 окт 2010, 22:02]
Статус:
Проверен
 
.torrent скачан: 0 раз
Хэш: 7923a82894bf820f2d8f9d4cc4a8c4d0ebf8e1c4
Размер: 500.33 МБ (524 628 881 байт)
   Стать Автором раздачи
   
Цитата
  • Похожие торренты
    Ответы
    Просмотры
    Последнее сообщение

Вернуться в Отечественная рок-музыка (оцифровки)

Кто сейчас на конференции

Сейчас эту тему просматривают: нет зарегистрированных пользователей и гости: 1