(Rock) [LP] [24/96] Татьяна Кочергина и рок-группа "XX век" (запись 1987 года) - 1988, APE (image+.cue), (Мелодия С60 26723-24 009)

 Статистика раздачи 
Размер: 882.5 МБ   |  Зарегистрирован: 30 июн 2011, 06:34   |   .torrent скачан: 0 раз
Сидеров: 0  [ 0 байт/сек ]     Личеров: 0  [ 0 байт/сек ]  
  
Аватара пользователя
 
Раздал: 256.39 ГБ
Скачал: 432.89 ГБ
Ратио: 0.672
Сообщения: 213353
Стаж: 8 лет 8 месяцев 16 дней

Татьяна Кочергина и рок-группа "XX век"
Жанр: Rock
Год выпуска: 1988
Лейбл: Мелодия
Страна-производитель: СССР
Аудио кодек: APE
Тип рипа: image+.cue
Формат записи: 32/192
Формат раздачи: 24/96
Продолжительность: 00:39:25
Источник оцифровки: автором раздачи
Код класса состояния винила: VG
Устройство воспроизведения: "Arija - 102"
Предварительный усилитель: "AMX - 100 (LTO®)"
АЦП: Juli@
Программа-оцифровщик: Adobe Audition
Обработка: удаление щелчков, восстановление трэков
Тэги в .cue sheet: прописаны
01. ДОБРОМ ЗА ДОБРО (В. Ильин — Н. Доризо)
02. НАКАЗ СЫНУ (В. Ильин — Ю. Мориц)
03. СИМФОНИЯ, часть 1 (А. Саратский)
04. ТIНI (В. Ильин — В. Коротич)
05. ОЛИМПО (А. Саратский — В. Герасимов)
06. ЧУДО-ЮДО (А. Саратский — В. Сгир)
07. ШАХМАТЫ (В. Ильин — И. Лазаревский)
08. КРИТИЧЕСКАЯ МАССА фрагмент рок-сюиты (В. Ильин)
09. ФАТА МОРГАНА (М. Скорик — И. Лазаревский)
10. ФИНАЛ (А. Саратский — Ю. Рогоза)

На русском (1, 2, 5-7, 10) и украинском (4, 8) языках
Александр Саратский, клавишные
Юрий Добробабенко, гитара
Юрий Регин, бас-гитара
Александр Ятел, ударные
REM GENRE Rock
REM DATE 1988
REM COMENT Мелодия С60 26723-24 009 LP
TITLE Татьяна Кочергина и рок-группа XX век
PERFORMER Татьяна Кочергина и рок-группа XX век
FILE "T. Kochergina & XX vek - 1988.ape" WAVE
TRACK 01 AUDIO
TITLE "Добром за добро"
INDEX 01 00:00:00
TRACK 02 AUDIO
TITLE "Наказ сыну"
INDEX 01 03:41:37
TRACK 03 AUDIO
TITLE "Симфония"
INDEX 01 07:43:09
TRACK 04 AUDIO
TITLE "Tiнi"
INDEX 01 12:38:02
TRACK 05 AUDIO
TITLE "Олимпо"
INDEX 01 16:16:04
TRACK 06 AUDIO
TITLE "Чудо-Юдо"
INDEX 01 20:51:07
TRACK 07 AUDIO
TITLE "Шахматы"
INDEX 01 25:24:38
TRACK 08 AUDIO
TITLE "Критическая масса"
INDEX 01 28:35:39
TRACK 09 AUDIO
TITLE "Фата-Моргана"
INDEX 01 30:57:58
TRACK 10 AUDIO
TITLE "Финал"
INDEX 01 35:57:42
Тридцатисекундные сэмплы с каждой стороны пластинки в папке раздачи.[/color
]
Не забывайте говорить Спасибо. Не уходите с раздачи!   
Торрент: Зарегистрирован [30 июн 2011, 06:34]
Статус:
Проверен
 
.torrent скачан: 0 раз
Хэш: d0195a477c210a8dc1aeb9d1725c3c1589c34588
Размер: 882.5 МБ (925 365 255 байт)
   Стать Автором раздачи
   
Цитата
  • Похожие торренты
    Ответы
    Просмотры
    Последнее сообщение

Вернуться в Отечественная рок-музыка (оцифровки)

Кто сейчас на конференции

Сейчас эту тему просматривают: нет зарегистрированных пользователей и гости: 1