(Rock) [MB] [16/44] Здоровье - 1985, FLAC (tracks)

 Статистика раздачи 
Размер: 248.58 МБ   |  Зарегистрирован: 04 апр 2011, 16:13   |   .torrent скачан: 0 раз
Сидеров: 0  [ 0 байт/сек ]     Личеров: 0  [ 0 байт/сек ]  
  
Аватара пользователя
 
Раздал: 256.39 ГБ
Скачал: 432.89 ГБ
Ратио: 0.672
Сообщения: 213355
Стаж: 8 лет 7 месяцев 10 дней
СообщениеДобавлено: 04 апр 2011, 16:13


Здоровье-1985
Жанр: Rock
Год выпуска: 1985
Страна-производитель: СССР
Аудио кодек: FLAC
Тип рипа: tracks
Формат записи: 16/44
Формат раздачи: 16/44
Продолжительность: 39.44
Источник оцифровки: автором раздачи
Устройство воспроизведения: Орбита Магнитофон приставка модель 105 стерео
Предварительный усилитель: Выход из наушников магнитофона
АЦП: Сан бластет аудидже 1
Программа-оцифровщик: Кул едит про 2.0
Обработка: да
01 Интро
02 Эй, приятель
03 Будет так, а не иначе
04 Старый пень
05 Он уже не молод
06 Что же делать червячку
07 В эти мартовские дни
08 Может быть уйдет весна
09 Карандаш
10 Я хотел себя посвятить
11 Что, где
12 Интро
Попытка гитариста Александра Левшина выступить в жанре, отличном от того, в котором он работает в "Рецитале" Аллы Пугачевой. Проект получился почти супергруппой: Петр Подгородецкий (экс-"Машина времени", "Воскресенье") - клавишные; Валентин Лезов (экс-"Арсенал", "Рок-Ателье") - бас; Александр Левшин - гитара; Александр Герасимов - ударные и Николай Коновалов - вокал. Жаль, но "3доровье", выпустив единственный магнитофонный альбом в стиле рок и хард-поп, как группа фактически перестает существовать.
REM GENRE Rock
REM DATE 1985
REM COMENT Магнитоальбом [MB]
TITLE Здоровье
PERFORMER группа Здоровье
FILE "Здоровье-1985.flac" WAVE
TRACK 01 AUDIO
TITLE "01 Интро"
INDEX 01 00:00:00
TRACK 02 AUDIO
TITLE "Эй, приятель"
INDEX 01 00:27:46
TRACK 03 AUDIO
TITLE "Будет так, а не иначе"
INDEX 01 03:51:50
TRACK 04 AUDIO
TITLE "Старый пень"
INDEX 01 09:08:69
TRACK 05 AUDIO
TITLE "Он уже не молод"
INDEX 01 12:35:68
TRACK 06 AUDIO
TITLE "Что же делать червячку"
INDEX 01 16:01:57
TRACK 07 AUDIO
TITLE "В эти мартовские дни"
INDEX 01 20:17:56
TRACK 08 AUDIO
TITLE "Может быть уйдет весна"
INDEX 01 23:57:62
TRACK 09 AUDIO
TITLE "Карандаш"
INDEX 01 28:01:36
TRACK 10 AUDIO
TITLE "Я хотел себя посвятить"
INDEX 01 30:33:16
TRACK 11 AUDIO
TITLE "Что, где"
INDEX 01 35:28:36
TRACK 12 AUDIO
TITLE "Интро"
INDEX 01 37:42:52
Если у кого-то возникнут затруднения, как из текстового куе файла сделать полноценный cue sheet - загляните сюда, выбрав спойлер "Как создать .cue sheet file чужой раздачи, имея только его текстовый формат. Для тех, кто скачивает! (от s. r.)"
цифровал в2000ных годах на компе интол пентиум1.7 кто делал представляют как это долго.Посмотрел в интернете во флаке записи нет.Это мая вторая попытка выложить.Первую закрыли выкладывал Конвенцию-7 1985года.Если что-то не так помогите.Запись твердая четвёрка с+
Не забывайте говорить Спасибо. Не уходите с раздачи!   
Торрент: Зарегистрирован [04 апр 2011, 16:13]
Статус:
Проверен
 
.torrent скачан: 0 раз
Хэш: ca6faa137033c9fc823f9dcdf53d98badafd8b77
Размер: 248.58 МБ (260 655 646 байт)
   Стать Автором раздачи
   
Цитата
  • Похожие торренты
    Ответы
    Просмотры
    Последнее сообщение

Вернуться в Отечественная рок-музыка (оцифровки)

Кто сейчас на конференции

Сейчас эту тему просматривают: нет зарегистрированных пользователей и гости: 1